少年邦4k电影下载

[复制链接]
朱古力小酥酥 发表于 2020-9-11 22:21 | 显示全部楼层 |阅读模式
电影频道
电影封面:
片  名: 少年邦4k
国  家: 美国   
电影分类: 纪录片   
分 辨 率: 4K(3840x2160)    
画质标准: HDR    
电影声道: 5.1声道   
资源大小: 19.17 GB
剧情简介: 故事讲述来自得克萨斯州的1000个17岁男孩参加了从零开始的代议制政府的故事。
少年邦4k Boys.State.2020.HDR.2160p.WEB.h265-4k电影信息
  1. Video
  2. ID : 1
  3. Format : HEVC
  4. Format/Info : High Efficiency Video Coding
  5. Format profile : Main 10@L5@High
  6. HDR format : SMPTE ST 2086, HDR10 compatible
  7. Codec ID : V_MPEGH/ISO/HEVC
  8. Duration : 1 h 49 min
  9. Bit rate : 24.1 Mb/s
  10. Width : 3 840 pixels
  11. Height : 1 608 pixels
  12. Display aspect ratio : 2.40:1
  13. Frame rate mode : Constant
  14. Frame rate : 23.976 (24000/1001) FPS
  15. Color space : YUV
  16. Chroma subsampling : 4:2:0 (Type 2)
  17. Bit depth : 10 bits
  18. Bits/(Pixel*Frame) : 0.163
  19. Stream size : 18.4 GiB (97%)
  20. Language : English
  21. Default : Yes
  22. Forced : No
  23. Color range : Limited
  24. Color primaries : BT.2020
  25. Transfer characteristics : PQ
  26. Matrix coefficients : BT.2020 non-constant
  27. Mastering display color primaries : Display P3
  28. Mastering display luminance : min: 0.0001 cd/m2, max: 1000 cd/m2
  29. Maximum Content Light Level : 10000 cd/m2
  30. Maximum Frame-Average Light Level : 161 cd/m2

  31. Audio
  32. ID : 2
  33. Format : E-AC-3 JOC
  34. Format/Info : Enhanced AC-3 with Joint Object Coding
  35. Commercial name : Dolby Digital Plus with Dolby Atmos
  36. Codec ID : A_EAC3
  37. Duration : 1 h 49 min
  38. Bit rate mode : Constant
  39. Bit rate : 768 kb/s
  40. Channel(s) : 6 channels
  41. Channel layout : L R C LFE Ls Rs
  42. Sampling rate : 48.0 kHz
  43. Frame rate : 31.250 FPS (1536 SPF)
  44. Compression mode : Lossy
  45. Stream size : 601 MiB (3%)
  46. Language : English
  47. Service kind : Complete Main
  48. Default : Yes
  49. Forced : No
  50. Complexity index : 16
  51. Number of dynamic objects : 15
  52. Bed channel count : 1 channel
  53. Bed channel configuration : LFE

  54. Text #1
  55. ID : 3
  56. Format : UTF-8
  57. Codec ID : S_TEXT/UTF8
  58. Codec ID/Info : UTF-8 Plain Text
  59. Duration : 1 h 48 min
  60. Bit rate : 140 b/s
  61. Count of elements : 1858
  62. Stream size : 112 KiB (0%)
  63. Title : العربية
  64. Language : Arabic
  65. Default : No
  66. Forced : No

  67. Text #2
  68. ID : 4
  69. Format : UTF-8
  70. Codec ID : S_TEXT/UTF8
  71. Codec ID/Info : UTF-8 Plain Text
  72. Duration : 1 h 48 min
  73. Bit rate : 129 b/s
  74. Count of elements : 1535
  75. Stream size : 103 KiB (0%)
  76. Title : български
  77. Language : Bulgarian
  78. Default : No
  79. Forced : No

  80. Text #3
  81. ID : 5
  82. Format : UTF-8
  83. Codec ID : S_TEXT/UTF8
  84. Codec ID/Info : UTF-8 Plain Text
  85. Duration : 1 h 48 min
  86. Bit rate : 84 b/s
  87. Count of elements : 1776
  88. Stream size : 67.2 KiB (0%)
  89. Title : Čeština
  90. Language : Czech
  91. Default : No
  92. Forced : No

  93. Text #4
  94. ID : 6
  95. Format : UTF-8
  96. Codec ID : S_TEXT/UTF8
  97. Codec ID/Info : UTF-8 Plain Text
  98. Duration : 1 h 48 min
  99. Bit rate : 75 b/s
  100. Count of elements : 1727
  101. Stream size : 59.9 KiB (0%)
  102. Title : dansk
  103. Language : Danish
  104. Default : No
  105. Forced : No

  106. Text #5
  107. ID : 7
  108. Format : UTF-8
  109. Codec ID : S_TEXT/UTF8
  110. Codec ID/Info : UTF-8 Plain Text
  111. Duration : 1 h 48 min
  112. Bit rate : 80 b/s
  113. Count of elements : 1767
  114. Stream size : 63.8 KiB (0%)
  115. Title : Deutsch
  116. Language : German
  117. Default : No
  118. Forced : No

  119. Text #6
  120. ID : 8
  121. Format : UTF-8
  122. Codec ID : S_TEXT/UTF8
  123. Codec ID/Info : UTF-8 Plain Text
  124. Duration : 1 h 48 min
  125. Bit rate : 150 b/s
  126. Count of elements : 1829
  127. Stream size : 120 KiB (0%)
  128. Title : Ελληνικά
  129. Language : Greek
  130. Default : No
  131. Forced : No

  132. Text #7
  133. ID : 9
  134. Format : UTF-8
  135. Codec ID : S_TEXT/UTF8
  136. Codec ID/Info : UTF-8 Plain Text
  137. Duration : 1 h 46 min
  138. Bit rate : 98 b/s
  139. Count of elements : 1791
  140. Stream size : 76.5 KiB (0%)
  141. Title : English
  142. Language : English
  143. Default : No
  144. Forced : No

  145. Text #8
  146. ID : 10
  147. Format : UTF-8
  148. Codec ID : S_TEXT/UTF8
  149. Codec ID/Info : UTF-8 Plain Text
  150. Duration : 1 h 17 min
  151. Bit rate : 0 b/s
  152. Count of elements : 10
  153. Stream size : 303 Bytes (0%)
  154. Title : English (forced)
  155. Language : English
  156. Default : No
  157. Forced : Yes

  158. Text #9
  159. ID : 11
  160. Format : UTF-8
  161. Codec ID : S_TEXT/UTF8
  162. Codec ID/Info : UTF-8 Plain Text
  163. Duration : 1 h 46 min
  164. Bit rate : 106 b/s
  165. Count of elements : 1956
  166. Stream size : 83.0 KiB (0%)
  167. Title : English (SDH)
  168. Language : English
  169. Default : No
  170. Forced : No

  171. Text #10
  172. ID : 12
  173. Format : UTF-8
  174. Codec ID : S_TEXT/UTF8
  175. Codec ID/Info : UTF-8 Plain Text
  176. Duration : 1 h 48 min
  177. Bit rate : 89 b/s
  178. Count of elements : 1763
  179. Stream size : 71.4 KiB (0%)
  180. Title : Español (España)
  181. Language : Spanish
  182. Default : No
  183. Forced : No

  184. Text #11
  185. ID : 13
  186. Format : UTF-8
  187. Codec ID : S_TEXT/UTF8
  188. Codec ID/Info : UTF-8 Plain Text
  189. Duration : 1 h 48 min
  190. Bit rate : 81 b/s
  191. Count of elements : 1847
  192. Stream size : 65.2 KiB (0%)
  193. Title : Español (Latinoamérica)
  194. Language : Spanish
  195. Default : No
  196. Forced : No

  197. Text #12
  198. ID : 14
  199. Format : UTF-8
  200. Codec ID : S_TEXT/UTF8
  201. Codec ID/Info : UTF-8 Plain Text
  202. Duration : 1 h 48 min
  203. Bit rate : 82 b/s
  204. Count of elements : 1593
  205. Stream size : 66.0 KiB (0%)
  206. Title : eesti
  207. Language : Estonian
  208. Default : No
  209. Forced : No

  210. Text #13
  211. ID : 15
  212. Format : UTF-8
  213. Codec ID : S_TEXT/UTF8
  214. Codec ID/Info : UTF-8 Plain Text
  215. Duration : 1 h 48 min
  216. Bit rate : 71 b/s
  217. Count of elements : 1814
  218. Stream size : 57.3 KiB (0%)
  219. Title : Suomi
  220. Language : Finnish
  221. Default : No
  222. Forced : No

  223. Text #14
  224. ID : 16
  225. Format : UTF-8
  226. Codec ID : S_TEXT/UTF8
  227. Codec ID/Info : UTF-8 Plain Text
  228. Duration : 1 h 48 min
  229. Bit rate : 81 b/s
  230. Count of elements : 1772
  231. Stream size : 64.9 KiB (0%)
  232. Title : Français (Canada)
  233. Language : French
  234. Default : No
  235. Forced : No

  236. Text #15
  237. ID : 17
  238. Format : UTF-8
  239. Codec ID : S_TEXT/UTF8
  240. Codec ID/Info : UTF-8 Plain Text
  241. Duration : 1 h 48 min
  242. Bit rate : 81 b/s
  243. Count of elements : 1772
  244. Stream size : 64.9 KiB (0%)
  245. Title : Français (France)
  246. Language : French
  247. Default : No
  248. Forced : No

  249. Text #16
  250. ID : 18
  251. Format : UTF-8
  252. Codec ID : S_TEXT/UTF8
  253. Codec ID/Info : UTF-8 Plain Text
  254. Duration : 1 h 48 min
  255. Bit rate : 125 b/s
  256. Count of elements : 1858
  257. Stream size : 100 KiB (0%)
  258. Title : עברית
  259. Language : Hebrew
  260. Default : No
  261. Forced : No

  262. Text #17
  263. ID : 19
  264. Format : UTF-8
  265. Codec ID : S_TEXT/UTF8
  266. Codec ID/Info : UTF-8 Plain Text
  267. Duration : 1 h 48 min
  268. Bit rate : 234 b/s
  269. Count of elements : 1860
  270. Stream size : 187 KiB (0%)
  271. Title : हिन्दी
  272. Language : Hindi
  273. Default : No
  274. Forced : No

  275. Text #18
  276. ID : 20
  277. Format : UTF-8
  278. Codec ID : S_TEXT/UTF8
  279. Codec ID/Info : UTF-8 Plain Text
  280. Duration : 1 h 48 min
  281. Bit rate : 86 b/s
  282. Count of elements : 1597
  283. Stream size : 68.9 KiB (0%)
  284. Title : magyar
  285. Language : Hungarian
  286. Default : No
  287. Forced : No

  288. Text #19
  289. ID : 21
  290. Format : UTF-8
  291. Codec ID : S_TEXT/UTF8
  292. Codec ID/Info : UTF-8 Plain Text
  293. Duration : 1 h 48 min
  294. Bit rate : 84 b/s
  295. Count of elements : 1843
  296. Stream size : 67.2 KiB (0%)
  297. Title : Bahasa Indonesia
  298. Language : Indonesian
  299. Default : No
  300. Forced : No

  301. Text #20
  302. ID : 22
  303. Format : UTF-8
  304. Codec ID : S_TEXT/UTF8
  305. Codec ID/Info : UTF-8 Plain Text
  306. Duration : 1 h 48 min
  307. Bit rate : 73 b/s
  308. Count of elements : 1626
  309. Stream size : 58.8 KiB (0%)
  310. Title : Italiano
  311. Language : Italian
  312. Default : No
  313. Forced : No

  314. Text #21
  315. ID : 23
  316. Format : UTF-8
  317. Codec ID : S_TEXT/UTF8
  318. Codec ID/Info : UTF-8 Plain Text
  319. Duration : 1 h 48 min
  320. Bit rate : 68 b/s
  321. Count of elements : 1510
  322. Stream size : 54.7 KiB (0%)
  323. Title : 日本語
  324. Language : Japanese
  325. Default : No
  326. Forced : No

  327. Text #22
  328. ID : 24
  329. Format : UTF-8
  330. Codec ID : S_TEXT/UTF8
  331. Codec ID/Info : UTF-8 Plain Text
  332. Duration : 1 h 48 min
  333. Bit rate : 94 b/s
  334. Count of elements : 1858
  335. Stream size : 75.0 KiB (0%)
  336. Title : lietuvių
  337. Language : Lithuanian
  338. Default : No
  339. Forced : No

  340. Text #23
  341. ID : 25
  342. Format : UTF-8
  343. Codec ID : S_TEXT/UTF8
  344. Codec ID/Info : UTF-8 Plain Text
  345. Duration : 1 h 48 min
  346. Bit rate : 93 b/s
  347. Count of elements : 1792
  348. Stream size : 74.3 KiB (0%)
  349. Title : latviešu
  350. Language : Latvian
  351. Default : No
  352. Forced : No

  353. Text #24
  354. ID : 26
  355. Format : UTF-8
  356. Codec ID : S_TEXT/UTF8
  357. Codec ID/Info : UTF-8 Plain Text
  358. Duration : 1 h 48 min
  359. Bit rate : 98 b/s
  360. Count of elements : 1844
  361. Stream size : 78.2 KiB (0%)
  362. Title : Bahasa Melayu
  363. Language : Malay
  364. Default : No
  365. Forced : No

  366. Text #25
  367. ID : 27
  368. Format : UTF-8
  369. Codec ID : S_TEXT/UTF8
  370. Codec ID/Info : UTF-8 Plain Text
  371. Duration : 1 h 48 min
  372. Bit rate : 78 b/s
  373. Count of elements : 1420
  374. Stream size : 62.8 KiB (0%)
  375. Title : Nederlands
  376. Language : Dutch
  377. Default : No
  378. Forced : No

  379. Text #26
  380. ID : 28
  381. Format : UTF-8
  382. Codec ID : S_TEXT/UTF8
  383. Codec ID/Info : UTF-8 Plain Text
  384. Duration : 1 h 48 min
  385. Bit rate : 88 b/s
  386. Count of elements : 1795
  387. Stream size : 70.4 KiB (0%)
  388. Title : norsk
  389. Language : Norwegian
  390. Default : No
  391. Forced : No

  392. Text #27
  393. ID : 29
  394. Format : UTF-8
  395. Codec ID : S_TEXT/UTF8
  396. Codec ID/Info : UTF-8 Plain Text
  397. Duration : 1 h 48 min
  398. Bit rate : 82 b/s
  399. Count of elements : 1830
  400. Stream size : 65.9 KiB (0%)
  401. Title : polski
  402. Language : Polish
  403. Default : No
  404. Forced : No

  405. Text #28
  406. ID : 30
  407. Format : UTF-8
  408. Codec ID : S_TEXT/UTF8
  409. Codec ID/Info : UTF-8 Plain Text
  410. Duration : 1 h 48 min
  411. Bit rate : 86 b/s
  412. Count of elements : 1817
  413. Stream size : 69.0 KiB (0%)
  414. Title : Português
  415. Language : Portuguese
  416. Default : No
  417. Forced : No

  418. Text #29
  419. ID : 31
  420. Format : UTF-8
  421. Codec ID : S_TEXT/UTF8
  422. Codec ID/Info : UTF-8 Plain Text
  423. Duration : 1 h 48 min
  424. Bit rate : 83 b/s
  425. Count of elements : 1800
  426. Stream size : 66.2 KiB (0%)
  427. Title : Português (Brasil)
  428. Language : Portuguese
  429. Default : No
  430. Forced : No

  431. Text #30
  432. ID : 32
  433. Format : UTF-8
  434. Codec ID : S_TEXT/UTF8
  435. Codec ID/Info : UTF-8 Plain Text
  436. Duration : 1 h 48 min
  437. Bit rate : 139 b/s
  438. Count of elements : 1761
  439. Stream size : 111 KiB (0%)
  440. Title : Русский
  441. Language : Russian
  442. Default : No
  443. Forced : No

  444. Text #31
  445. ID : 33
  446. Format : UTF-8
  447. Codec ID : S_TEXT/UTF8
  448. Codec ID/Info : UTF-8 Plain Text
  449. Duration : 1 h 48 min
  450. Bit rate : 82 b/s
  451. Count of elements : 1796
  452. Stream size : 66.2 KiB (0%)
  453. Title : Slovenčina
  454. Language : Slovak
  455. Default : No
  456. Forced : No

  457. Text #32
  458. ID : 34
  459. Format : UTF-8
  460. Codec ID : S_TEXT/UTF8
  461. Codec ID/Info : UTF-8 Plain Text
  462. Duration : 1 h 48 min
  463. Bit rate : 71 b/s
  464. Count of elements : 1770
  465. Stream size : 56.8 KiB (0%)
  466. Title : slovenščina
  467. Language : Slovenian
  468. Default : No
  469. Forced : No

  470. Text #33
  471. ID : 35
  472. Format : UTF-8
  473. Codec ID : S_TEXT/UTF8
  474. Codec ID/Info : UTF-8 Plain Text
  475. Duration : 1 h 48 min
  476. Bit rate : 87 b/s
  477. Count of elements : 1834
  478. Stream size : 69.5 KiB (0%)
  479. Title : Svenska
  480. Language : Swedish
  481. Default : No
  482. Forced : No

  483. Text #34
  484. ID : 36
  485. Format : UTF-8
  486. Codec ID : S_TEXT/UTF8
  487. Codec ID/Info : UTF-8 Plain Text
  488. Duration : 1 h 48 min
  489. Bit rate : 298 b/s
  490. Count of elements : 1858
  491. Stream size : 238 KiB (0%)
  492. Title : தமிழ்
  493. Language : Tamil
  494. Default : No
  495. Forced : No

  496. Text #35
  497. ID : 37
  498. Format : UTF-8
  499. Codec ID : S_TEXT/UTF8
  500. Codec ID/Info : UTF-8 Plain Text
  501. Duration : 1 h 48 min
  502. Bit rate : 247 b/s
  503. Count of elements : 1858
  504. Stream size : 198 KiB (0%)
  505. Title : తెలుగు
  506. Language : Telugu
  507. Default : No
  508. Forced : No

  509. Text #36
  510. ID : 38
  511. Format : UTF-8
  512. Codec ID : S_TEXT/UTF8
  513. Codec ID/Info : UTF-8 Plain Text
  514. Duration : 1 h 48 min
  515. Bit rate : 235 b/s
  516. Count of elements : 1858
  517. Stream size : 188 KiB (0%)
  518. Title : ไทย
  519. Language : Thai
  520. Default : No
  521. Forced : No

  522. Text #37
  523. ID : 39
  524. Format : UTF-8
  525. Codec ID : S_TEXT/UTF8
  526. Codec ID/Info : UTF-8 Plain Text
  527. Duration : 1 h 48 min
  528. Bit rate : 83 b/s
  529. Count of elements : 1684
  530. Stream size : 66.6 KiB (0%)
  531. Title : Türkçe
  532. Language : Turkish
  533. Default : No
  534. Forced : No

  535. Text #38
  536. ID : 40
  537. Format : UTF-8
  538. Codec ID : S_TEXT/UTF8
  539. Codec ID/Info : UTF-8 Plain Text
  540. Duration : 1 h 48 min
  541. Bit rate : 145 b/s
  542. Count of elements : 1857
  543. Stream size : 116 KiB (0%)
  544. Title : українська
  545. Language : Ukrainian
  546. Default : No
  547. Forced : No

  548. Text #39
  549. ID : 41
  550. Format : UTF-8
  551. Codec ID : S_TEXT/UTF8
  552. Codec ID/Info : UTF-8 Plain Text
  553. Duration : 1 h 48 min
  554. Bit rate : 127 b/s
  555. Count of elements : 1838
  556. Stream size : 102 KiB (0%)
  557. Title : Tiếng Việt
  558. Language : Vietnamese
  559. Default : No
  560. Forced : No

  561. Text #40
  562. ID : 42
  563. Format : UTF-8
  564. Codec ID : S_TEXT/UTF8
  565. Codec ID/Info : UTF-8 Plain Text
  566. Duration : 1 h 48 min
  567. Bit rate : 83 b/s
  568. Count of elements : 1860
  569. Stream size : 66.5 KiB (0%)
  570. Title : 廣東話
  571. Language : Chinese
  572. Default : No
  573. Forced : No

  574. Text #41
  575. ID : 43
  576. Format : UTF-8
  577. Codec ID : S_TEXT/UTF8
  578. Codec ID/Info : UTF-8 Plain Text
  579. Duration : 1 h 48 min
  580. Bit rate : 79 b/s
  581. Count of elements : 1860
  582. Stream size : 63.2 KiB (0%)
  583. Title : 中文(繁體)
  584. Language : Chinese
  585. Default : No
  586. Forced : No

  587. Text #42
  588. ID : 44
  589. Format : UTF-8
  590. Codec ID : S_TEXT/UTF8
  591. Codec ID/Info : UTF-8 Plain Text
  592. Duration : 1 h 48 min
  593. Bit rate : 81 b/s
  594. Count of elements : 1858
  595. Stream size : 65.2 KiB (0%)
  596. Title : 中文(简体)
  597. Language : Chinese
  598. Default : No
  599. Forced : No
复制代码

少年邦4k Boys.State.2020.HDR.2160p.WEB.h265-4k电影信息
少年邦4k Boys.State.2020.HDR.2160p.WEB.h265【19.17 GB】
少年邦4k.Boys.State.2020.HDR.2160p.WEB.h265-TRUMP.torrent (96.54 KB, 售价: 10 金币)
热门电影
关闭

站长通知上一条 /1 下一条

Copyright   ©2015-2016  4k群  Powered by©Discuz!  技术支持:4K群