人脑计算机4k电影下载

[复制链接]
朱古力小酥酥 发表于 2020-9-11 22:27 | 显示全部楼层 |阅读模式
电影频道
电影封面:
片  名: 人脑计算机4k
国  家: 印度   
电影分类: 传记   
分 辨 率: 4K(3840x2160)    
画质标准: 其他 
电影声道: 5.1声道   
资源大小: 4.9 GB
剧情简介: 维迪娅·巴兰出演世界著名的印度数学家沙昆塔拉·德维(Shakuntala Devi),这部电影于2020年7月30日在全球首映。
天才数学家/人脑计算机4k.Shakuntala.Devi.2020.2160p.AMZN.WEB-Rip.DD+5.1.H.265-4k电影信息
  1. General
  2. Unique ID                      : 292446748292748112683166479053136425260 (0xDC0331E965007BF75BE9299C2289712C)
  3. Complete name                  : F:\Hao4K\人脑计算机4k.Shakuntala.Devi.2020.2160p.AMAZON.WEB-Rip.Dolby.Digital.5.1.H.265-Hao4K.mkv
  4. Format                         : Matroska
  5. Format version                 : Version 4
  6. File size                      : 4.85 GiB
  7. Duration                       : 2 h 7 min
  8. Overall bit rate               : 5 470 kb/s
  9. Encoded date                   : UTC 2020-07-30 22:55:27
  10. Writing application            : mkvmerge v47.0.0 ('Black Flag') 64-bit
  11. Writing library                : libebml v1.3.10 + libmatroska v1.5.2

  12. Video
  13. ID                             : 1
  14. Format                         : HEVC
  15. Format/Info                    : High Efficiency Video Coding
  16. Format profile                 : Main 10@L5@Main
  17. Codec ID                       : V_MPEGH/ISO/HEVC
  18. Duration                       : 2 h 7 min
  19. Bit rate                       : 4 828 kb/s
  20. Width                          : 3 840 pixels
  21. Height                         : 1 632 pixels
  22. Display aspect ratio           : 2.35:1
  23. Frame rate mode                : Constant
  24. Frame rate                     : 24.000 FPS
  25. Standard                       : NTSC
  26. Color space                    : YUV
  27. Chroma subsampling             : 4:2:0
  28. Bit depth                      : 10 bits
  29. Bits/(Pixel*Frame)             : 0.032
  30. Stream size                    : 4.28 GiB (88%)
  31. Writing library                : x265 3.4+6-g73f96ff39:[Windows][GCC 11.0.0][64 bit] 10bit
  32. Encoding settings              : cpuid=1111039 / frame-threads=4 / numa-pools=16 / wpp / no-pmode / no-pme / no-psnr / no-ssim / log-level=2 / input-csp=1 / input-res=3840x1632 / interlace=0 / total-frames=182898 / level-idc=0 / high-tier=1 / uhd-bd=0 / ref=1 / no-allow-non-conformance / no-repeat-headers / annexb / no-aud / no-hrd / info / hash=0 / no-temporal-layers / open-gop / min-keyint=24 / keyint=250 / gop-lookahead=0 / bframes=3 / b-adapt=0 / b-pyramid / bframe-bias=0 / rc-lookahead=10 / lookahead-slices=8 / scenecut=40 / hist-scenecut=0 / radl=0 / no-splice / no-intra-refresh / ctu=32 / min-cu-size=8 / no-rect / no-amp / max-tu-size=32 / tu-inter-depth=1 / tu-intra-depth=1 / limit-tu=0 / rdoq-level=0 / dynamic-rd=0.00 / no-ssim-rd / signhide / no-tskip / nr-intra=0 / nr-inter=0 / no-constrained-intra / strong-intra-smoothing / max-merge=2 / limit-refs=0 / no-limit-modes / me=1 / subme=1 / merange=57 / temporal-mvp / no-frame-dup / no-hme / no-weightp / no-weightb / no-analyze-src-pics / no-deblock / no-sao / no-sao-non-deblock / rd=2 / selective-sao=0 / early-skip / rskip / fast-intra / no-tskip-fast / no-cu-lossless / no-b-intra / no-splitrd-skip / rdpenalty=0 / psy-rd=2.00 / psy-rdoq=0.00 / no-rd-refine / no-lossless / cbqpoffs=0 / crqpoffs=0 / rc=abr / bitrate=4861 / qcomp=0.60 / qpstep=4 / stats-write=0 / stats-read=0 / ipratio=1.40 / pbratio=1.30 / aq-mode=1 / aq-strength=0.00 / cutree / zone-count=0 / no-strict-cbr / qg-size=32 / no-rc-grain / qpmax=69 / qpmin=0 / no-const-vbv / sar=0 / overscan=0 / videoformat=2 / range=0 / colorprim=1 / transfer=1 / colormatrix=1 / chromaloc=0 / display-window=0 / cll=0,0 / min-luma=0 / max-luma=1023 / log2-max-poc-lsb=8 / vui-timing-info / vui-hrd-info / slices=1 / no-opt-qp-pps / no-opt-ref-list-length-pps / no-multi-pass-opt-rps / scenecut-bias=0.05 / hist-threshold=0.01 / no-opt-cu-delta-qp / no-aq-motion / no-hdr10 / no-hdr10-opt / no-dhdr10-opt / no-idr-recovery-sei / analysis-reuse-level=0 / analysis-save-reuse-level=0 / analysis-load-reuse-level=0 / scale-factor=0 / refine-intra=0 / refine-inter=0 / refine-mv=1 / refine-ctu-distortion=0 / no-limit-sao / ctu-info=0 / no-lowpass-dct / refine-analysis-type=0 / copy-pic=1 / max-ausize-factor=1.0 / no-dynamic-refine / no-single-sei / no-hevc-aq / no-svt / no-field / qp-adaptation-range=1.00 / no-scenecut-aware-qpconformance-window-offsets / right=0 / bottom=0 / decoder-max-rate=0
  33. Default                        : Yes
  34. Forced                         : No
  35. Color range                    : Limited
  36. Color primaries                : BT.709
  37. Transfer characteristics       : BT.709
  38. Matrix coefficients            : BT.709

  39. Audio
  40. ID                             : 2
  41. Format                         : E-AC-3
  42. Format/Info                    : Enhanced AC-3
  43. Commercial name                : Dolby Digital Plus
  44. Codec ID                       : A_EAC3
  45. Duration                       : 2 h 7 min
  46. Bit rate mode                  : Constant
  47. Bit rate                       : 640 kb/s
  48. Channel(s)                     : 6 channels
  49. Channel layout                 : L R C LFE Ls Rs
  50. Sampling rate                  : 48.0 kHz
  51. Frame rate                     : 31.250 FPS (1536 SPF)
  52. Compression mode               : Lossy
  53. Stream size                    : 581 MiB (12%)
  54. Language                       : Hindi
  55. Service kind                   : Complete Main
  56. Default                        : No
  57. Forced                         : No

  58. Text
  59. ID                             : 3
  60. Format                         : UTF-8
  61. Codec ID                       : S_TEXT/UTF8
  62. Codec ID/Info                  : UTF-8 Plain Text
  63. Duration                       : 2 h 3 min
  64. Bit rate                       : 60 b/s
  65. Count of elements              : 1834
  66. Stream size                    : 54.6 KiB (0%)
  67. Title                          : English (SDH)
  68. Language                       : English
  69. Default                        : No
  70. Forced                         : No
复制代码

天才数学家/人脑计算机4k.Shakuntala.Devi.2020.2160p.AMZN.WEB-Rip.DD+5.1.H.265-4k电影下载
人脑计算机4k.Shakuntala.Devi.2020.2160p.AMAZON.WEB-Rip.Dolby.Digital.5.1.H.265-4k电影【4.9 GB】
人脑计算机4k.Shakuntala.Devi.2020.2160p.AMAZON.WEB-Rip.Dolby.Digital.5.1.H.265-H.torrent (14.25 KB, 售价: 10 金币)
热门电影
关闭

站长通知上一条 /1 下一条

Copyright   ©2015-2016  4k群  Powered by©Discuz!  技术支持:4K群