抢救德梅洛4k Sergio.2020.2160p电影下载

[复制链接]
朱古力小酥酥 发表于 2020-9-16 22:06 | 显示全部楼层 |阅读模式
电影频道
电影封面:
片  名: 抢救德梅洛4k
国  家: 美国   
电影分类: 剧情   
分 辨 率: 4K(3840x2160)    
画质标准: 其他 
电影声道: 5.1声道   
资源大小: 24.18 GB
剧情简介: 故事讲述在美国入侵伊拉克后混乱的局势下,联合国高级外交官塞尔吉奥·维埃拉·德梅洛冒着生命危险平衡各方势力。
塞尔吉奥/抢救德梅洛4k Sergio.2020.2160p.NF.WEBRip.x265.10bit.SDR.DD5.1.Atmos电影信息
  1. Video
  2. ID : 1
  3. Format : HEVC
  4. Format/Info : High Efficiency Video Coding
  5. Format profile : Main 10@L5.1@High
  6. Codec ID : V_MPEGH/ISO/HEVC
  7. Duration : 1 h 58 min
  8. Bit rate : 28.4 Mb/s
  9. Width : 3 840 pixels
  10. Height : 1 920 pixels
  11. Display aspect ratio : 2.000
  12. Frame rate mode : Constant
  13. Frame rate : 23.976 (24000/1001) FPS
  14. Color space : YUV
  15. Chroma subsampling : 4:2:0
  16. Bit depth : 10 bits
  17. Bits/(Pixel*Frame) : 0.161
  18. Stream size : 23.5 GiB (97%)
  19. Writing library : x265 3.2+38-fdbd4e4a2aff:[Windows][GCC 9.2.1][64 bit] 10bit
  20. Encoding settings : cpuid=1111039 / frame-threads=4 / numa-pools=16 / wpp / no-pmode / no-pme / no-psnr / no-ssim / log-level=2 / input-csp=1 / input-res=3840x1920 / interlace=0 / total-frames=170697 / level-idc=51 / high-tier=1 / uhd-bd=0 / ref=5 / no-allow-non-conformance / repeat-headers / annexb / aud / hrd / info / hash=0 / no-temporal-layers / open-gop / min-keyint=23 / keyint=250 / gop-lookahead=0 / bframes=8 / b-adapt=2 / b-pyramid / bframe-bias=0 / rc-lookahead=40 / lookahead-slices=8 / scenecut=40 / hist-scenecut=0 / radl=0 / no-splice / no-intra-refresh / ctu=64 / min-cu-size=8 / no-rect / no-amp / max-tu-size=32 / tu-inter-depth=4 / tu-intra-depth=4 / limit-tu=4 / rdoq-level=0 / dynamic-rd=0.00 / no-ssim-rd / signhide / no-tskip / nr-intra=0 / nr-inter=0 / no-constrained-intra / strong-intra-smoothing / max-merge=4 / limit-refs=1 / no-limit-modes / me=1 / subme=5 / merange=57 / temporal-mvp / no-frame-dup / no-hme / weightp / weightb / no-analyze-src-pics / deblock=-3:-3 / no-sao / no-sao-non-deblock / rd=4 / selective-sao=0 / early-skip / rskip / no-fast-intra / no-tskip-fast / no-cu-lossless / b-intra / no-splitrd-skip / rdpenalty=0 / psy-rd=2.00 / psy-rdoq=0.00 / no-rd-refine / no-lossless / cbqpoffs=0 / crqpoffs=0 / rc=crf / crf=19.0 / qcomp=0.60 / qpstep=4 / stats-write=0 / stats-read=0 / vbv-maxrate=160000 / vbv-bufsize=160000 / vbv-init=0.9 / crf-max=0.0 / crf-min=0.0 / ipratio=1.30 / pbratio=1.20 / aq-mode=1 / aq-strength=0.85 / no-cutree / zone-count=0 / no-strict-cbr / qg-size=32 / no-rc-grain / qpmax=69 / qpmin=0 / no-const-vbv / sar=1 / overscan=0 / videoformat=5 / range=0 / colorprim=1 / transfer=1 / colormatrix=1 / chromaloc=0 / display-window=0 / cll=0,0 / min-luma=0 / max-luma=1023 / log2-max-poc-lsb=8 / vui-timing-info / vui-hrd-info / slices=1 / no-opt-qp-pps / no-opt-ref-list-length-pps / no-multi-pass-opt-rps / scenecut-bias=0.05 / hist-threshold=0.01 / no-opt-cu-delta-qp / no-aq-motion / no-hdr10 / no-hdr10-opt / no-dhdr10-opt / no-idr-recovery-sei / analysis-reuse-level=0 / analysis-save-reuse-level=0 / analysis-load-reuse-level=0 / scale-factor=0 / refine-intra=0 / refine-inter=0 / refine-mv=1 / refine-ctu-distortion=0 / no-limit-sao / ctu-info=0 / no-lowpass-dct / refine-analysis-type=0 / copy-pic=1 / max-ausize-factor=1.0 / no-dynamic-refine / no-single-sei / no-hevc-aq / no-svt / no-field / qp-adaptation-range=1.00 / no-scenecut-aware-qpconformance-window-offsets / right=0 / bottom=0
  21. Default : Yes
  22. Forced : No
  23. Color range : Limited
  24. Color primaries : BT.709
  25. Transfer characteristics : BT.709
  26. Matrix coefficients : BT.709

  27. Audio
  28. ID : 2
  29. Format : E-AC-3 JOC
  30. Format/Info : Enhanced AC-3 with Joint Object Coding
  31. Commercial name : Dolby Digital Plus with Dolby Atmos
  32. Codec ID : A_EAC3
  33. Duration : 1 h 58 min
  34. Bit rate mode : Constant
  35. Bit rate : 768 kb/s
  36. Channel(s) : 6 channels
  37. Channel layout : L R C LFE Ls Rs
  38. Sampling rate : 48.0 kHz
  39. Frame rate : 31.250 FPS (1536 SPF)
  40. Compression mode : Lossy
  41. Stream size : 652 MiB (3%)
  42. Title : English
  43. Language : English
  44. Service kind : Complete Main
  45. Default : Yes
  46. Forced : No
  47. Complexity index : 16
  48. Number of dynamic objects : 15
  49. Bed channel count : 1 channel
  50. Bed channel configuration : LFE

  51. Text #1
  52. ID : 3
  53. Format : UTF-8
  54. Codec ID : S_TEXT/UTF8
  55. Codec ID/Info : UTF-8 Plain Text
  56. Duration : 1 h 23 min
  57. Bit rate : 6 b/s
  58. Count of elements : 171
  59. Stream size : 3.76 KiB (0%)
  60. Title : Forced
  61. Language : English
  62. Default : Yes
  63. Forced : Yes

  64. Text #2
  65. ID : 4
  66. Format : UTF-8
  67. Codec ID : S_TEXT/UTF8
  68. Codec ID/Info : UTF-8 Plain Text
  69. Duration : 1 h 53 min
  70. Bit rate : 55 b/s
  71. Count of elements : 1651
  72. Stream size : 46.1 KiB (0%)
  73. Title : SDH
  74. Language : English
  75. Default : No
  76. Forced : No

  77. Text #3
  78. ID : 5
  79. Format : UTF-8
  80. Codec ID : S_TEXT/UTF8
  81. Codec ID/Info : UTF-8 Plain Text
  82. Duration : 1 h 57 min
  83. Bit rate : 74 b/s
  84. Count of elements : 1365
  85. Stream size : 63.9 KiB (0%)
  86. Language : Arabic
  87. Default : No
  88. Forced : No

  89. Text #4
  90. ID : 6
  91. Format : UTF-8
  92. Codec ID : S_TEXT/UTF8
  93. Codec ID/Info : UTF-8 Plain Text
  94. Duration : 1 h 57 min
  95. Bit rate : 39 b/s
  96. Count of elements : 1316
  97. Stream size : 34.4 KiB (0%)
  98. Language : Czech
  99. Default : No
  100. Forced : No

  101. Text #5
  102. ID : 7
  103. Format : UTF-8
  104. Codec ID : S_TEXT/UTF8
  105. Codec ID/Info : UTF-8 Plain Text
  106. Duration : 1 h 57 min
  107. Bit rate : 38 b/s
  108. Count of elements : 1141
  109. Stream size : 33.4 KiB (0%)
  110. Language : Danish
  111. Default : No
  112. Forced : No

  113. Text #6
  114. ID : 8
  115. Format : UTF-8
  116. Codec ID : S_TEXT/UTF8
  117. Codec ID/Info : UTF-8 Plain Text
  118. Duration : 1 h 57 min
  119. Bit rate : 45 b/s
  120. Count of elements : 1303
  121. Stream size : 39.3 KiB (0%)
  122. Language : German
  123. Default : No
  124. Forced : No

  125. Text #7
  126. ID : 9
  127. Format : UTF-8
  128. Codec ID : S_TEXT/UTF8
  129. Codec ID/Info : UTF-8 Plain Text
  130. Duration : 1 h 57 min
  131. Bit rate : 72 b/s
  132. Count of elements : 1319
  133. Stream size : 62.1 KiB (0%)
  134. Language : Greek
  135. Default : No
  136. Forced : No

  137. Text #8
  138. ID : 10
  139. Format : UTF-8
  140. Codec ID : S_TEXT/UTF8
  141. Codec ID/Info : UTF-8 Plain Text
  142. Duration : 1 h 57 min
  143. Bit rate : 41 b/s
  144. Count of elements : 1195
  145. Stream size : 35.6 KiB (0%)
  146. Language : Spanish
  147. Default : No
  148. Forced : No

  149. Text #9
  150. ID : 11
  151. Format : UTF-8
  152. Codec ID : S_TEXT/UTF8
  153. Codec ID/Info : UTF-8 Plain Text
  154. Duration : 1 h 57 min
  155. Bit rate : 42 b/s
  156. Count of elements : 1278
  157. Stream size : 36.7 KiB (0%)
  158. Title : European
  159. Language : Spanish
  160. Default : No
  161. Forced : No

  162. Text #10
  163. ID : 12
  164. Format : UTF-8
  165. Codec ID : S_TEXT/UTF8
  166. Codec ID/Info : UTF-8 Plain Text
  167. Duration : 1 h 57 min
  168. Bit rate : 42 b/s
  169. Count of elements : 1112
  170. Stream size : 37.0 KiB (0%)
  171. Language : Finnish
  172. Default : No
  173. Forced : No

  174. Text #11
  175. ID : 13
  176. Format : UTF-8
  177. Codec ID : S_TEXT/UTF8
  178. Codec ID/Info : UTF-8 Plain Text
  179. Duration : 1 h 57 min
  180. Bit rate : 41 b/s
  181. Count of elements : 1237
  182. Stream size : 35.4 KiB (0%)
  183. Language : French
  184. Default : No
  185. Forced : No

  186. Text #12
  187. ID : 14
  188. Format : UTF-8
  189. Codec ID : S_TEXT/UTF8
  190. Codec ID/Info : UTF-8 Plain Text
  191. Duration : 1 h 57 min
  192. Bit rate : 68 b/s
  193. Count of elements : 1337
  194. Stream size : 58.6 KiB (0%)
  195. Language : Hebrew
  196. Default : No
  197. Forced : No

  198. Text #13
  199. ID : 15
  200. Format : UTF-8
  201. Codec ID : S_TEXT/UTF8
  202. Codec ID/Info : UTF-8 Plain Text
  203. Duration : 1 h 57 min
  204. Bit rate : 118 b/s
  205. Count of elements : 1351
  206. Stream size : 102 KiB (0%)
  207. Language : Hindi
  208. Default : No
  209. Forced : No

  210. Text #14
  211. ID : 16
  212. Format : UTF-8
  213. Codec ID : S_TEXT/UTF8
  214. Codec ID/Info : UTF-8 Plain Text
  215. Duration : 1 h 57 min
  216. Bit rate : 42 b/s
  217. Count of elements : 1285
  218. Stream size : 36.6 KiB (0%)
  219. Language : Hungarian
  220. Default : No
  221. Forced : No

  222. Text #15
  223. ID : 17
  224. Format : UTF-8
  225. Codec ID : S_TEXT/UTF8
  226. Codec ID/Info : UTF-8 Plain Text
  227. Duration : 1 h 57 min
  228. Bit rate : 42 b/s
  229. Count of elements : 1334
  230. Stream size : 36.6 KiB (0%)
  231. Language : Indonesian
  232. Default : No
  233. Forced : No

  234. Text #16
  235. ID : 18
  236. Format : UTF-8
  237. Codec ID : S_TEXT/UTF8
  238. Codec ID/Info : UTF-8 Plain Text
  239. Duration : 1 h 57 min
  240. Bit rate : 43 b/s
  241. Count of elements : 1261
  242. Stream size : 37.7 KiB (0%)
  243. Language : Italian
  244. Default : No
  245. Forced : No

  246. Text #17
  247. ID : 19
  248. Format : UTF-8
  249. Codec ID : S_TEXT/UTF8
  250. Codec ID/Info : UTF-8 Plain Text
  251. Duration : 1 h 57 min
  252. Bit rate : 43 b/s
  253. Count of elements : 1231
  254. Stream size : 37.9 KiB (0%)
  255. Language : Japanese
  256. Default : No
  257. Forced : No

  258. Text #18
  259. ID : 20
  260. Format : UTF-8
  261. Codec ID : S_TEXT/UTF8
  262. Codec ID/Info : UTF-8 Plain Text
  263. Duration : 1 h 57 min
  264. Bit rate : 54 b/s
  265. Count of elements : 1369
  266. Stream size : 47.2 KiB (0%)
  267. Language : Korean
  268. Default : No
  269. Forced : No

  270. Text #19
  271. ID : 21
  272. Format : UTF-8
  273. Codec ID : S_TEXT/UTF8
  274. Codec ID/Info : UTF-8 Plain Text
  275. Duration : 1 h 57 min
  276. Bit rate : 40 b/s
  277. Count of elements : 1295
  278. Stream size : 35.0 KiB (0%)
  279. Language : Norwegian Bokmal
  280. Default : No
  281. Forced : No

  282. Text #20
  283. ID : 22
  284. Format : UTF-8
  285. Codec ID : S_TEXT/UTF8
  286. Codec ID/Info : UTF-8 Plain Text
  287. Duration : 1 h 57 min
  288. Bit rate : 37 b/s
  289. Count of elements : 1023
  290. Stream size : 32.2 KiB (0%)
  291. Language : Dutch
  292. Default : No
  293. Forced : No

  294. Text #21
  295. ID : 23
  296. Format : UTF-8
  297. Codec ID : S_TEXT/UTF8
  298. Codec ID/Info : UTF-8 Plain Text
  299. Duration : 1 h 57 min
  300. Bit rate : 39 b/s
  301. Count of elements : 1320
  302. Stream size : 34.2 KiB (0%)
  303. Language : Polish
  304. Default : No
  305. Forced : No

  306. Text #22
  307. ID : 24
  308. Format : UTF-8
  309. Codec ID : S_TEXT/UTF8
  310. Codec ID/Info : UTF-8 Plain Text
  311. Duration : 1 h 57 min
  312. Bit rate : 40 b/s
  313. Count of elements : 1176
  314. Stream size : 35.3 KiB (0%)
  315. Language : Portuguese
  316. Default : No
  317. Forced : No

  318. Text #23
  319. ID : 25
  320. Format : UTF-8
  321. Codec ID : S_TEXT/UTF8
  322. Codec ID/Info : UTF-8 Plain Text
  323. Duration : 1 h 57 min
  324. Bit rate : 37 b/s
  325. Count of elements : 1253
  326. Stream size : 32.5 KiB (0%)
  327. Title : Brazilian
  328. Language : Portuguese
  329. Default : No
  330. Forced : No

  331. Text #24
  332. ID : 26
  333. Format : UTF-8
  334. Codec ID : S_TEXT/UTF8
  335. Codec ID/Info : UTF-8 Plain Text
  336. Duration : 1 h 57 min
  337. Bit rate : 50 b/s
  338. Count of elements : 1334
  339. Stream size : 43.3 KiB (0%)
  340. Language : Romanian
  341. Default : No
  342. Forced : No

  343. Text #25
  344. ID : 27
  345. Format : UTF-8
  346. Codec ID : S_TEXT/UTF8
  347. Codec ID/Info : UTF-8 Plain Text
  348. Duration : 1 h 57 min
  349. Bit rate : 74 b/s
  350. Count of elements : 1344
  351. Stream size : 64.2 KiB (0%)
  352. Language : Russian
  353. Default : No
  354. Forced : No

  355. Text #26
  356. ID : 28
  357. Format : UTF-8
  358. Codec ID : S_TEXT/UTF8
  359. Codec ID/Info : UTF-8 Plain Text
  360. Duration : 1 h 57 min
  361. Bit rate : 40 b/s
  362. Count of elements : 1219
  363. Stream size : 35.2 KiB (0%)
  364. Language : Swedish
  365. Default : No
  366. Forced : No

  367. Text #27
  368. ID : 29
  369. Format : UTF-8
  370. Codec ID : S_TEXT/UTF8
  371. Codec ID/Info : UTF-8 Plain Text
  372. Duration : 1 h 57 min
  373. Bit rate : 111 b/s
  374. Count of elements : 1346
  375. Stream size : 96.4 KiB (0%)
  376. Language : Thai
  377. Default : No
  378. Forced : No

  379. Text #28
  380. ID : 30
  381. Format : UTF-8
  382. Codec ID : S_TEXT/UTF8
  383. Codec ID/Info : UTF-8 Plain Text
  384. Duration : 1 h 57 min
  385. Bit rate : 45 b/s
  386. Count of elements : 1344
  387. Stream size : 39.1 KiB (0%)
  388. Language : Turkish
  389. Default : No
  390. Forced : No

  391. Text #29
  392. ID : 31
  393. Format : UTF-8
  394. Codec ID : S_TEXT/UTF8
  395. Codec ID/Info : UTF-8 Plain Text
  396. Duration : 1 h 57 min
  397. Bit rate : 58 b/s
  398. Count of elements : 1328
  399. Stream size : 50.2 KiB (0%)
  400. Language : Vietnamese
  401. Default : No
  402. Forced : No

  403. Text #30
  404. ID : 32
  405. Format : UTF-8
  406. Codec ID : S_TEXT/UTF8
  407. Codec ID/Info : UTF-8 Plain Text
  408. Duration : 1 h 57 min
  409. Bit rate : 42 b/s
  410. Count of elements : 1365
  411. Stream size : 36.5 KiB (0%)
  412. Title : Simplified
  413. Language : Chinese
  414. Default : No
  415. Forced : No

  416. Text #31
  417. ID : 33
  418. Format : UTF-8
  419. Codec ID : S_TEXT/UTF8
  420. Codec ID/Info : UTF-8 Plain Text
  421. Duration : 1 h 57 min
  422. Bit rate : 44 b/s
  423. Count of elements : 1341
  424. Stream size : 38.6 KiB (0%)
  425. Title : Traditional
  426. Language : Chinese
  427. Default : No
  428. Forced : No
复制代码

塞尔吉奥/抢救德梅洛4k Sergio.2020.2160p.NF.WEBRip.x265.10bit.SDR.DD5.1.Atmos电影下载
抢救德梅洛4k Sergio.2020.2160p.NF.WEBRip.x265.10bit.SDR.DD5.1.Atmos【24.18 GB】
抢救德梅洛4k Sergio.2020.2160p.NF.WEBRip.x265.10bit.SDR.DD5.1.Atmos-NTb.torrent (60.97 KB, 售价: 10 金币)
热门电影
关闭

站长通知上一条 /1 下一条

Copyright   ©2015-2016  4k群  Powered by©Discuz!  技术支持:4K群