绍德王室4K.Kingdom.Of.Silence.2020.2160p电影下载

[复制链接]
朱古力小酥酥 发表于 2020-10-11 22:08 | 显示全部楼层 |阅读模式
电影频道
电影封面:
片  名: 绍德王室4K
国  家: 美国   
电影分类: 纪录片   
分 辨 率: 4K(3840x2160)    
画质标准: 其他 
电影声道: 5.1声道   
资源大小: 9.45 GB
剧情简介: 记录沙特阿拉伯记者贾迈勒·卡舒吉被杀一案
Kingdom of Silence/绍德王室4K.Kingdom.Of.Silence.2020.2160p.STAN.WEBRip.AAC5.1.x265-4k电影信息
  1. Video
  2. ID : 1
  3. Format : HEVC
  4. Format/Info : High Efficiency Video Coding
  5. Format profile : Main@L5@High
  6. Codec ID : V_MPEGH/ISO/HEVC
  7. Duration : 1 h 37 min
  8. Bit rate : 13.4 Mb/s
  9. Width : 3 840 pixels
  10. Height : 2 160 pixels
  11. Display aspect ratio : 16:9
  12. Frame rate mode : Constant
  13. Frame rate : 23.976 (24000/1001) FPS
  14. Color space : YUV
  15. Chroma subsampling : 4:2:0
  16. Bit depth : 8 bits
  17. Bits/(Pixel*Frame) : 0.067
  18. Stream size : 9.14 GiB (97%)
  19. Default : Yes
  20. Forced : No
  21. Color range : Limited
  22. Matrix coefficients : BT.2020 non-constant

  23. Audio
  24. ID : 2
  25. Format : AAC LC
  26. Format/Info : Advanced Audio Codec Low Complexity
  27. Codec ID : A_AAC-2
  28. Duration : 1 h 37 min
  29. Bit rate : 445 kb/s
  30. Channel(s) : 6 channels
  31. Channel layout : C L R Ls Rs LFE
  32. Sampling rate : 48.0 kHz
  33. Frame rate : 46.875 FPS (1024 SPF)
  34. Compression mode : Lossy
  35. Stream size : 312 MiB (3%)
  36. Language : English
  37. Default : Yes
  38. Forced : No

  39. Text
  40. ID : 3
  41. Format : UTF-8
  42. Codec ID : S_TEXT/UTF8
  43. Codec ID/Info : UTF-8 Plain Text
  44. Duration : 1 h 36 min
  45. Bit rate : 87 b/s
  46. Count of elements : 1887
  47. Stream size : 61.5 KiB (0%)
  48. Language : English
  49. Default : No
  50. Forced : No
复制代码

Kingdom of Silence/绍德王室4K.Kingdom.Of.Silence.2020.2160p.STAN.WEBRip.AAC5.1.x265-4K电影下载
绍德王室4K.Kingdom.Of.Silence.2020.2160p.STAN.WEBRip.AAC5.1.x265【9.45 GB】
绍德王室4K.Kingdom.Of.Silence.2020.2160p.STAN.WEBRip.AAC5.1.x265-playWEB.torrent (47.81 KB, 售价: 10 金币)
热门电影
关闭

站长通知上一条 /1 下一条

Copyright   ©2015-2016  4k群  Powered by©Discuz!  技术支持:4K群