凯利帮的真实历史4K True.History.of.the.Kelly.Gang.2019.HDR.2160p电影

[复制链接]
朱古力小酥酥 发表于 2020-10-12 21:29 | 显示全部楼层 |阅读模式
电影频道
电影封面:
片  名: 凯利帮的真实历史4K
国  家: 美国   
电影分类: 犯罪   
分 辨 率: 4K(3840x2160)    
画质标准: HDR    
电影声道: 其他
资源大小: 9.83 GB
剧情简介: 罗素·克劳、尼古拉斯·霍尔特、乔治·麦凯、艾斯·戴维斯加盟传记犯罪剧情新片《凯利帮的真实历史》(The True History of the Kelly Gang),贾斯汀·库泽尔(《麦克白》《刺客信条》)执导,明年三月澳大利亚开拍。
  肖恩·格兰特(《贾斯珀·琼斯》《柏林综合症》)编写剧本,基于Peter Carey所著同名布克奖获奖小说,讲述澳大利亚绿林好汉Edward "Ned" Kelly传奇的一生。凯利被公认为是最后一个,也是最著名的绿林好汉。因家庭遭遇变故而流亡澳大利亚,他和弟弟以及好友一起建立了“凯利帮”,反抗暴警和政府,在此期间谋杀了数名警官。他在人生中的最后大战中穿着防弹装甲与警察展开了激烈的枪战,身受重伤,成为唯一生还者,被关进墨尔本的监狱,于1880年被处以绞刑,年仅25岁。
  崔维斯·费米尔、肖恩·基南、达克雷·蒙特戈梅里(《怪奇物语》《恐龙战队》)、哈利·格林伍德、Thomasin McKenzie、Earl Cave等参演,Liz Watts、Hal Vogel、Brad Feinstein制片。
凯利帮的真实历史 4K True.History.of.the.Kelly.Gang.2019.HDR.2160p.WEB.H265电影信息
  1. Video
  2. ID : 1
  3. Format : HEVC
  4. Format/Info : High Efficiency Video Coding
  5. Format profile : Main 10@L5@Main
  6. HDR format : SMPTE ST 2086, HDR10 compatible
  7. Codec ID : V_MPEGH/ISO/HEVC
  8. Duration : 2 h 5 min
  9. Bit rate : 10.5 Mb/s
  10. Width : 3 840 pixels
  11. Height : 2 160 pixels
  12. Display aspect ratio : 16:9
  13. Frame rate mode : Constant
  14. Frame rate : 24.000 FPS
  15. Color space : YUV
  16. Chroma subsampling : 4:2:0
  17. Bit depth : 10 bits
  18. Bits/(Pixel*Frame) : 0.053
  19. Stream size : 9.20 GiB (94%)
  20. Language : English
  21. Default : Yes
  22. Forced : No
  23. Color range : Limited
  24. Color primaries : BT.2020
  25. Transfer characteristics : PQ
  26. Matrix coefficients : BT.2020 non-constant
  27. Mastering display color primaries : Display P3
  28. Mastering display luminance : min: 0.0001 cd/m2, max: 1000 cd/m2
  29. Statistics Tags Issue : no_variable_data 1970-01-01 00:00:00 / no_variable_data 2010-02-22 21:41:29
  30. FromStats_BitRate : 10742081
  31. FromStats_Duration : 02:05:10.000000000
  32. FromStats_FrameCount : 180240
  33. FromStats_StreamSize : 10084129029

  34. Audio
  35. ID : 2
  36. Format : E-AC-3
  37. Format/Info : Enhanced AC-3
  38. Commercial name : Dolby Digital Plus
  39. Codec ID : A_EAC3
  40. Duration : 2 h 5 min
  41. Bit rate mode : Constant
  42. Bit rate : 448 kb/s
  43. Channel(s) : 6 channels
  44. Channel layout : L R C LFE Ls Rs
  45. Sampling rate : 48.0 kHz
  46. Frame rate : 31.250 FPS (1536 SPF)
  47. Compression mode : Lossy
  48. Stream size : 401 MiB (4%)
  49. Language : English
  50. Service kind : Complete Main
  51. Default : Yes
  52. Forced : No
  53. Statistics Tags Issue : no_variable_data 1970-01-01 00:00:00 / no_variable_data 2010-02-22 21:41:29
  54. FromStats_BitRate : 448000
  55. FromStats_Duration : 02:05:10.016000000
  56. FromStats_FrameCount : 234688
  57. FromStats_StreamSize : 420560896

  58. Text
  59. ID : 3
  60. Format : UTF-8
  61. Codec ID : S_TEXT/UTF8
  62. Codec ID/Info : UTF-8 Plain Text
  63. Title : English (SDH)
  64. Language : English
  65. Default : No
  66. Forced : No
  67. Statistics Tags Issue : no_variable_data 1970-01-01 00:00:00 / no_variable_data 2010-02-22 21:41:29
  68. FromStats_BitRate : 59
  69. FromStats_Duration : 02:00:19.853000000
  70. FromStats_FrameCount : 1742
  71. FromStats_StreamSize : 53631
复制代码

凯利帮的真实历史 4K True.History.of.the.Kelly.Gang.2019.HDR.2160p.WEB.H265电影下载【9.83 GB】
凯利帮的真实历史4K True.History.of.the.Kelly.Gang.2019.HDR.2160p.WEB.torrent (49.91 KB, 售价: 10 金币)
热门电影
关闭

站长通知上一条 /1 下一条

Copyright   ©2015-2016  4k群  Powered by©Discuz!  技术支持:4K群