珍珠港:75年后4k Pearl.Harbor.Into.The.Arizona.2016.2160p-4k纪录片

[复制链接]
朱古力小酥酥 发表于 2020-10-12 21:50 | 显示全部楼层 |阅读模式
电影频道
电影封面:
片  名: 珍珠港:75年后4k
国  家: 美国   
电影分类: 战争   纪录片   历史   
分 辨 率: 4K(3840x2160)    
画质标准: 其他 
电影声道: 其他
资源大小: 8.07 GB
剧情简介: This documentary special takes us on a journey through the “day that will live in infamy,” by exploring the biggest stories and lesser known details that still surprise us 75 years later. Accounts from experts, military minds, and even those who lived through it, will show how this tragedy continues to shape our country today.
珍珠港:75年后4k Pearl.Harbor.Into.The.Arizona.2016.2160p.WEB.x264纪录片信息
  1. Video
  2. ID : 1
  3. Format : AVC
  4. Format/Info : Advanced Video Codec
  5. Format profile : Main@L3.1
  6. Format settings : CABAC / 4 Ref Frames
  7. Format settings, CABAC : Yes
  8. Format settings, Reference frames : 4 frames
  9. Codec ID : V_MPEG4/ISO/AVC
  10. Duration : 1 h 2 min
  11. Bit rate : 18.5 Mb/s
  12. Width : 3 840 pixels
  13. Height : 2 160 pixels
  14. Display aspect ratio : 16:9
  15. Frame rate mode : Constant
  16. Frame rate : 29.970 (30000/1001) FPS
  17. Color space : YUV
  18. Chroma subsampling : 4:2:0
  19. Bit depth : 8 bits
  20. Scan type : Progressive
  21. Bits/(Pixel*Frame) : 0.075
  22. Stream size : 7.99 GiB (99%)
  23. Writing library : x264 core 148
  24. Encoding settings : cabac=1 / ref=3 / deblock=1:0:0 / analyse=0x1:0x111 / me=hex / subme=7 / psy=1 / psy_rd=1.00:0.00 / mixed_ref=1 / me_range=16 / chroma_me=1 / trellis=1 / 8x8dct=0 / cqm=0 / deadzone=21,11 / fast_pskip=1 / chroma_qp_offset=-2 / threads=48 / lookahead_threads=8 / sliced_threads=0 / nr=0 / decimate=1 / interlaced=0 / bluray_compat=0 / constrained_intra=0 / bframes=3 / b_pyramid=2 / b_adapt=1 / b_bias=0 / direct=1 / weightb=1 / open_gop=0 / weightp=2 / keyint=90 / keyint_min=9 / scenecut=0 / intra_refresh=0 / rc_lookahead=40 / rc=abr / mbtree=1 / bitrate=18523 / ratetol=1.0 / qcomp=0.60 / qpmin=0 / qpmax=69 / qpstep=4 / ip_ratio=1.40 / aq=1:1.00
  25. Default : Yes
  26. Forced : No
  27. Color range : Limited
  28. Color primaries : BT.709
  29. Transfer characteristics : BT.709
  30. Matrix coefficients : BT.709

  31. Audio
  32. ID : 2
  33. Format : AAC LC
  34. Format/Info : Advanced Audio Codec Low Complexity
  35. Codec ID : A_AAC-2
  36. Duration : 1 h 2 min
  37. Bit rate : 192 kb/s
  38. Channel(s) : 2 channels
  39. Channel layout : L R
  40. Sampling rate : 44.1 kHz
  41. Frame rate : 43.066 FPS (1024 SPF)
  42. Compression mode : Lossy
  43. Delay relative to video : -46 ms
  44. Stream size : 84.2 MiB (1%)
  45. Language : English
  46. Default : Yes
  47. Forced : No
复制代码

珍珠港:75年后4k Pearl.Harbor.Into.The.Arizona.2016.2160p.WEB.x264纪录片下载
珍珠港:75年后4k Pearl.Harbor.Into.The.Arizona.2016.2160p.WEB.x264【8.07 GB】
珍珠港:75年后4k Pearl.Harbor.Into.The.Arizona.2016.2160p.WEB.torrent (40.98 KB, 售价: 10 金币)
热门电影
关闭

站长通知上一条 /1 下一条

Copyright   ©2015-2016  4k群  Powered by©Discuz!  技术支持:4K群