银行家4k The.Banker.2020.2160p-4k电影下载

[复制链接]
朱古力小酥酥 发表于 2020-10-12 21:59 | 显示全部楼层 |阅读模式
电影频道
电影封面:
片  名: 银行家4k
国  家: 美国   
电影分类: 剧情   
分 辨 率: 4K(3840x2160)    
画质标准: 其他 
电影声道: 5.1声道   
资源大小: 18.08 GB
剧情简介: 乔治·诺非将执导全新影片[银行家](The Banker,暂译),塞缪尔·杰克逊、安东尼·麦凯、尼古拉斯·霍尔特、尼娅·朗等主演。乔治·诺非、尼科·莱维共同操刀剧本。Romulus Entertainment融资。影片基于伯纳德·加勒特(安东尼·麦凯饰)和乔·莫里斯(塞缪尔·杰克逊饰)两个非裔美国企业家的真实故事改编,1950年代他们试图挣脱种族歧视的传统枷锁,招募白人工人为其工作。尼古拉斯·霍尔特扮演他们商业帝国的一名白人负责人。目前影片在亚特兰大展开拍摄。
银行家4k The.Banker.2020.2160p.ATVP.WEB-DL.x265.10bit.SDR.DDP5.1.Atmos电影信息
  1. Video
  2. ID : 1
  3. Format : HEVC
  4. Format/Info : High Efficiency Video Coding
  5. Format profile : Main 10@L5@High
  6. Codec ID : V_MPEGH/ISO/HEVC
  7. Duration : 2 h 0 min
  8. Bit rate : 20.7 Mb/s
  9. Width : 3 840 pixels
  10. Height : 1 606 pixels
  11. Display aspect ratio : 2.40:1
  12. Frame rate mode : Constant
  13. Frame rate : 23.976 (24000/1001) FPS
  14. Color space : YUV
  15. Chroma subsampling : 4:2:0
  16. Bit depth : 10 bits
  17. Bits/(Pixel*Frame) : 0.140
  18. Stream size : 17.4 GiB (96%)
  19. Language : English
  20. Default : Yes
  21. Forced : No
  22. Color range : Limited
  23. Color primaries : BT.709
  24. Transfer characteristics : BT.709
  25. Matrix coefficients : BT.709

  26. Audio
  27. ID : 2
  28. Format : E-AC-3 JOC
  29. Format/Info : Enhanced AC-3 with Joint Object Coding
  30. Commercial name : Dolby Digital Plus with Dolby Atmos
  31. Codec ID : A_EAC3
  32. Duration : 2 h 0 min
  33. Bit rate mode : Constant
  34. Bit rate : 768 kb/s
  35. Channel(s) : 6 channels
  36. Channel layout : L R C LFE Ls Rs
  37. Sampling rate : 48.0 kHz
  38. Frame rate : 31.250 FPS (1536 SPF)
  39. Compression mode : Lossy
  40. Stream size : 662 MiB (4%)
  41. Language : English
  42. Service kind : Complete Main
  43. Default : Yes
  44. Forced : No
  45. Complexity index : 16
  46. Number of dynamic objects : 15
  47. Bed channel count : 1 channel
  48. Bed channel configuration : LFE

  49. Text #1
  50. ID : 3
  51. Format : UTF-8
  52. Codec ID : S_TEXT/UTF8
  53. Codec ID/Info : UTF-8 Plain Text
  54. Duration : 1 h 53 min
  55. Bit rate : 73 b/s
  56. Count of elements : 1751
  57. Stream size : 61.3 KiB (0%)
  58. Language : English
  59. Default : No
  60. Forced : No

  61. Text #2
  62. ID : 4
  63. Format : UTF-8
  64. Codec ID : S_TEXT/UTF8
  65. Codec ID/Info : UTF-8 Plain Text
  66. Duration : 1 h 56 min
  67. Bit rate : 75 b/s
  68. Count of elements : 1848
  69. Stream size : 64.2 KiB (0%)
  70. Title : English (SDH)
  71. Language : English
  72. Default : No
  73. Forced : No

  74. Text #3
  75. ID : 5
  76. Format : UTF-8
  77. Codec ID : S_TEXT/UTF8
  78. Codec ID/Info : UTF-8 Plain Text
  79. Duration : 2 h 0 min
  80. Bit rate : 106 b/s
  81. Count of elements : 1834
  82. Stream size : 93.9 KiB (0%)
  83. Language : Arabic
  84. Default : No
  85. Forced : No

  86. Text #4
  87. ID : 6
  88. Format : UTF-8
  89. Codec ID : S_TEXT/UTF8
  90. Codec ID/Info : UTF-8 Plain Text
  91. Duration : 2 h 0 min
  92. Bit rate : 102 b/s
  93. Count of elements : 1833
  94. Stream size : 90.3 KiB (0%)
  95. Language : Bulgarian
  96. Default : No
  97. Forced : No

  98. Text #5
  99. ID : 7
  100. Format : UTF-8
  101. Codec ID : S_TEXT/UTF8
  102. Codec ID/Info : UTF-8 Plain Text
  103. Duration : 2 h 0 min
  104. Bit rate : 65 b/s
  105. Count of elements : 1835
  106. Stream size : 58.0 KiB (0%)
  107. Title : Cantonese (Traditional)
  108. Language : Chinese
  109. Default : No
  110. Forced : No

  111. Text #6
  112. ID : 8
  113. Format : UTF-8
  114. Codec ID : S_TEXT/UTF8
  115. Codec ID/Info : UTF-8 Plain Text
  116. Duration : 2 h 0 min
  117. Bit rate : 64 b/s
  118. Count of elements : 1835
  119. Stream size : 56.8 KiB (0%)
  120. Title : Chinese (Simplified)
  121. Language : Chinese
  122. Default : No
  123. Forced : No

  124. Text #7
  125. ID : 9
  126. Format : UTF-8
  127. Codec ID : S_TEXT/UTF8
  128. Codec ID/Info : UTF-8 Plain Text
  129. Duration : 2 h 0 min
  130. Bit rate : 62 b/s
  131. Count of elements : 1835
  132. Stream size : 55.4 KiB (0%)
  133. Title : Chinese (Traditional)
  134. Language : Chinese
  135. Default : No
  136. Forced : No

  137. Text #8
  138. ID : 10
  139. Format : UTF-8
  140. Codec ID : S_TEXT/UTF8
  141. Codec ID/Info : UTF-8 Plain Text
  142. Duration : 2 h 0 min
  143. Bit rate : 65 b/s
  144. Count of elements : 1815
  145. Stream size : 57.4 KiB (0%)
  146. Language : Czech
  147. Default : No
  148. Forced : No

  149. Text #9
  150. ID : 11
  151. Format : UTF-8
  152. Codec ID : S_TEXT/UTF8
  153. Codec ID/Info : UTF-8 Plain Text
  154. Duration : 2 h 0 min
  155. Bit rate : 70 b/s
  156. Count of elements : 1811
  157. Stream size : 62.0 KiB (0%)
  158. Language : Danish
  159. Default : No
  160. Forced : No

  161. Text #10
  162. ID : 12
  163. Format : UTF-8
  164. Codec ID : S_TEXT/UTF8
  165. Codec ID/Info : UTF-8 Plain Text
  166. Duration : 2 h 0 min
  167. Bit rate : 62 b/s
  168. Count of elements : 1768
  169. Stream size : 54.8 KiB (0%)
  170. Language : Dutch
  171. Default : No
  172. Forced : No

  173. Text #11
  174. ID : 13
  175. Format : UTF-8
  176. Codec ID : S_TEXT/UTF8
  177. Codec ID/Info : UTF-8 Plain Text
  178. Duration : 2 h 0 min
  179. Bit rate : 64 b/s
  180. Count of elements : 1826
  181. Stream size : 56.7 KiB (0%)
  182. Language : Estonian
  183. Default : No
  184. Forced : No

  185. Text #12
  186. ID : 14
  187. Format : UTF-8
  188. Codec ID : S_TEXT/UTF8
  189. Codec ID/Info : UTF-8 Plain Text
  190. Duration : 2 h 0 min
  191. Bit rate : 56 b/s
  192. Count of elements : 1808
  193. Stream size : 50.0 KiB (0%)
  194. Language : Finnish
  195. Default : No
  196. Forced : No

  197. Text #13
  198. ID : 15
  199. Format : UTF-8
  200. Codec ID : S_TEXT/UTF8
  201. Codec ID/Info : UTF-8 Plain Text
  202. Duration : 2 h 0 min
  203. Bit rate : 64 b/s
  204. Count of elements : 1655
  205. Stream size : 56.4 KiB (0%)
  206. Title : French (Canada)
  207. Language : French
  208. Default : No
  209. Forced : No

  210. Text #14
  211. ID : 16
  212. Format : UTF-8
  213. Codec ID : S_TEXT/UTF8
  214. Codec ID/Info : UTF-8 Plain Text
  215. Duration : 2 h 0 min
  216. Bit rate : 64 b/s
  217. Count of elements : 1654
  218. Stream size : 56.4 KiB (0%)
  219. Title : French (France)
  220. Language : French
  221. Default : No
  222. Forced : No

  223. Text #15
  224. ID : 17
  225. Format : UTF-8
  226. Codec ID : S_TEXT/UTF8
  227. Codec ID/Info : UTF-8 Plain Text
  228. Duration : 2 h 0 min
  229. Bit rate : 71 b/s
  230. Count of elements : 1465
  231. Stream size : 63.4 KiB (0%)
  232. Language : German
  233. Default : No
  234. Forced : No

  235. Text #16
  236. ID : 18
  237. Format : UTF-8
  238. Codec ID : S_TEXT/UTF8
  239. Codec ID/Info : UTF-8 Plain Text
  240. Duration : 2 h 0 min
  241. Bit rate : 114 b/s
  242. Count of elements : 1830
  243. Stream size : 101 KiB (0%)
  244. Language : Greek
  245. Default : No
  246. Forced : No

  247. Text #17
  248. ID : 19
  249. Format : UTF-8
  250. Codec ID : S_TEXT/UTF8
  251. Codec ID/Info : UTF-8 Plain Text
  252. Duration : 2 h 0 min
  253. Bit rate : 96 b/s
  254. Count of elements : 1832
  255. Stream size : 85.1 KiB (0%)
  256. Language : Hebrew
  257. Default : No
  258. Forced : No

  259. Text #18
  260. ID : 20
  261. Format : UTF-8
  262. Codec ID : S_TEXT/UTF8
  263. Codec ID/Info : UTF-8 Plain Text
  264. Duration : 2 h 0 min
  265. Bit rate : 183 b/s
  266. Count of elements : 1833
  267. Stream size : 161 KiB (0%)
  268. Language : Hindi
  269. Default : No
  270. Forced : No

  271. Text #19
  272. ID : 21
  273. Format : UTF-8
  274. Codec ID : S_TEXT/UTF8
  275. Codec ID/Info : UTF-8 Plain Text
  276. Duration : 2 h 0 min
  277. Bit rate : 66 b/s
  278. Count of elements : 1826
  279. Stream size : 58.5 KiB (0%)
  280. Language : Hungarian
  281. Default : No
  282. Forced : No

  283. Text #20
  284. ID : 22
  285. Format : UTF-8
  286. Codec ID : S_TEXT/UTF8
  287. Codec ID/Info : UTF-8 Plain Text
  288. Duration : 2 h 0 min
  289. Bit rate : 66 b/s
  290. Count of elements : 1822
  291. Stream size : 58.4 KiB (0%)
  292. Language : Indonesian
  293. Default : No
  294. Forced : No

  295. Text #21
  296. ID : 23
  297. Format : UTF-8
  298. Codec ID : S_TEXT/UTF8
  299. Codec ID/Info : UTF-8 Plain Text
  300. Duration : 2 h 0 min
  301. Bit rate : 73 b/s
  302. Count of elements : 1624
  303. Stream size : 64.8 KiB (0%)
  304. Language : Italian
  305. Default : No
  306. Forced : No

  307. Text #22
  308. ID : 24
  309. Format : UTF-8
  310. Codec ID : S_TEXT/UTF8
  311. Codec ID/Info : UTF-8 Plain Text
  312. Duration : 2 h 0 min
  313. Bit rate : 57 b/s
  314. Count of elements : 1654
  315. Stream size : 50.7 KiB (0%)
  316. Language : Japanese
  317. Default : No
  318. Forced : No

  319. Text #23
  320. ID : 25
  321. Format : UTF-8
  322. Codec ID : S_TEXT/UTF8
  323. Codec ID/Info : UTF-8 Plain Text
  324. Duration : 2 h 0 min
  325. Bit rate : 72 b/s
  326. Count of elements : 1832
  327. Stream size : 63.6 KiB (0%)
  328. Language : Latvian
  329. Default : No
  330. Forced : No

  331. Text #24
  332. ID : 26
  333. Format : UTF-8
  334. Codec ID : S_TEXT/UTF8
  335. Codec ID/Info : UTF-8 Plain Text
  336. Duration : 2 h 0 min
  337. Bit rate : 74 b/s
  338. Count of elements : 1833
  339. Stream size : 65.7 KiB (0%)
  340. Language : Lithuanian
  341. Default : No
  342. Forced : No

  343. Text #25
  344. ID : 27
  345. Format : UTF-8
  346. Codec ID : S_TEXT/UTF8
  347. Codec ID/Info : UTF-8 Plain Text
  348. Duration : 2 h 0 min
  349. Bit rate : 73 b/s
  350. Count of elements : 1813
  351. Stream size : 64.4 KiB (0%)
  352. Language : Malay
  353. Default : No
  354. Forced : No

  355. Text #26
  356. ID : 28
  357. Format : UTF-8
  358. Codec ID : S_TEXT/UTF8
  359. Codec ID/Info : UTF-8 Plain Text
  360. Duration : 2 h 0 min
  361. Bit rate : 66 b/s
  362. Count of elements : 1817
  363. Stream size : 59.0 KiB (0%)
  364. Language : Norwegian
  365. Default : No
  366. Forced : No

  367. Text #27
  368. ID : 29
  369. Format : UTF-8
  370. Codec ID : S_TEXT/UTF8
  371. Codec ID/Info : UTF-8 Plain Text
  372. Duration : 2 h 0 min
  373. Bit rate : 62 b/s
  374. Count of elements : 1821
  375. Stream size : 54.7 KiB (0%)
  376. Language : Polish
  377. Default : No
  378. Forced : No

  379. Text #28
  380. ID : 30
  381. Format : UTF-8
  382. Codec ID : S_TEXT/UTF8
  383. Codec ID/Info : UTF-8 Plain Text
  384. Duration : 2 h 0 min
  385. Bit rate : 75 b/s
  386. Count of elements : 1813
  387. Stream size : 66.1 KiB (0%)
  388. Language : Portuguese
  389. Default : No
  390. Forced : No

  391. Text #29
  392. ID : 31
  393. Format : UTF-8
  394. Codec ID : S_TEXT/UTF8
  395. Codec ID/Info : UTF-8 Plain Text
  396. Duration : 2 h 0 min
  397. Bit rate : 67 b/s
  398. Count of elements : 1815
  399. Stream size : 59.8 KiB (0%)
  400. Title : Portuguese (Brazil)
  401. Language : Portuguese
  402. Default : No
  403. Forced : No

  404. Text #30
  405. ID : 32
  406. Format : UTF-8
  407. Codec ID : S_TEXT/UTF8
  408. Codec ID/Info : UTF-8 Plain Text
  409. Duration : 2 h 0 min
  410. Bit rate : 109 b/s
  411. Count of elements : 1834
  412. Stream size : 96.1 KiB (0%)
  413. Language : Russian
  414. Default : No
  415. Forced : No

  416. Text #31
  417. ID : 33
  418. Format : UTF-8
  419. Codec ID : S_TEXT/UTF8
  420. Codec ID/Info : UTF-8 Plain Text
  421. Duration : 2 h 0 min
  422. Bit rate : 63 b/s
  423. Count of elements : 1824
  424. Stream size : 56.4 KiB (0%)
  425. Language : Slovak
  426. Default : No
  427. Forced : No

  428. Text #32
  429. ID : 34
  430. Format : UTF-8
  431. Codec ID : S_TEXT/UTF8
  432. Codec ID/Info : UTF-8 Plain Text
  433. Duration : 2 h 0 min
  434. Bit rate : 54 b/s
  435. Count of elements : 1828
  436. Stream size : 48.4 KiB (0%)
  437. Language : Slovenian
  438. Default : No
  439. Forced : No

  440. Text #33
  441. ID : 35
  442. Format : UTF-8
  443. Codec ID : S_TEXT/UTF8
  444. Codec ID/Info : UTF-8 Plain Text
  445. Duration : 2 h 0 min
  446. Bit rate : 72 b/s
  447. Count of elements : 1828
  448. Stream size : 64.0 KiB (0%)
  449. Title : Spanish (Latin America)
  450. Language : Spanish
  451. Default : No
  452. Forced : No

  453. Text #34
  454. ID : 36
  455. Format : UTF-8
  456. Codec ID : S_TEXT/UTF8
  457. Codec ID/Info : UTF-8 Plain Text
  458. Duration : 2 h 0 min
  459. Bit rate : 74 b/s
  460. Count of elements : 1959
  461. Stream size : 65.8 KiB (0%)
  462. Title : Spanish (Spain)
  463. Language : Spanish
  464. Default : No
  465. Forced : No

  466. Text #35
  467. ID : 37
  468. Format : UTF-8
  469. Codec ID : S_TEXT/UTF8
  470. Codec ID/Info : UTF-8 Plain Text
  471. Duration : 2 h 0 min
  472. Bit rate : 70 b/s
  473. Count of elements : 1812
  474. Stream size : 62.2 KiB (0%)
  475. Language : Swedish
  476. Default : No
  477. Forced : No

  478. Text #36
  479. ID : 38
  480. Format : UTF-8
  481. Codec ID : S_TEXT/UTF8
  482. Codec ID/Info : UTF-8 Plain Text
  483. Duration : 2 h 0 min
  484. Bit rate : 228 b/s
  485. Count of elements : 1831
  486. Stream size : 201 KiB (0%)
  487. Language : Tamil
  488. Default : No
  489. Forced : No

  490. Text #37
  491. ID : 39
  492. Format : UTF-8
  493. Codec ID : S_TEXT/UTF8
  494. Codec ID/Info : UTF-8 Plain Text
  495. Duration : 2 h 0 min
  496. Bit rate : 201 b/s
  497. Count of elements : 1831
  498. Stream size : 178 KiB (0%)
  499. Language : Telugu
  500. Default : No
  501. Forced : No

  502. Text #38
  503. ID : 40
  504. Format : UTF-8
  505. Codec ID : S_TEXT/UTF8
  506. Codec ID/Info : UTF-8 Plain Text
  507. Duration : 2 h 0 min
  508. Bit rate : 156 b/s
  509. Count of elements : 1835
  510. Stream size : 138 KiB (0%)
  511. Language : Thai
  512. Default : No
  513. Forced : No

  514. Text #39
  515. ID : 41
  516. Format : UTF-8
  517. Codec ID : S_TEXT/UTF8
  518. Codec ID/Info : UTF-8 Plain Text
  519. Duration : 2 h 0 min
  520. Bit rate : 105 b/s
  521. Count of elements : 1834
  522. Stream size : 92.9 KiB (0%)
  523. Language : Ukrainian
  524. Default : No
  525. Forced : No

  526. Text #40
  527. ID : 42
  528. Format : UTF-8
  529. Codec ID : S_TEXT/UTF8
  530. Codec ID/Info : UTF-8 Plain Text
  531. Duration : 2 h 0 min
  532. Bit rate : 94 b/s
  533. Count of elements : 1830
  534. Stream size : 83.5 KiB (0%)
  535. Language : Vietnamese
  536. Default : No
  537. Forced : No
  538. Trailer:         Play trailer
复制代码

银行家4k The.Banker.2020.2160p.ATVP.WEB-DL.x265.10bit.SDR.DDP5.1.Atmos电影下载

银行家4k The.Banker.2020.2160p.ATVP.WEB-DL.x265.10bit.SDR.DDP5.1.Atmos [18.08 GB]
银行家4k The.Banker.2020.2160p.ATVP.WEB-DL.x265.10bit.SDR.DDP5.1.Atmos-Ba.torrent (90.92 KB, 售价: 10 金币)
热门电影
关闭

站长通知上一条 /1 下一条

Copyright   ©2015-2016  4k群  Powered by©Discuz!  技术支持:4K群