加勒比海盗4:惊涛怪浪4k Pirates.Of.The.Caribbean.On.Stranger.Tides.2011电影下载

[复制链接]
朱古力小酥酥 发表于 2020-10-13 20:39 | 显示全部楼层 |阅读模式
电影频道
电影封面:
片  名: 加勒比海盗4:惊涛怪浪4k
国  家: 美国   
电影分类: 动作   冒险   奇幻   
分 辨 率: 4K(3840x2160)    
画质标准: HDR    
电影声道: 其他
资源大小: 16.03 GB
剧情简介: 迪士尼《加勒比海盗4》豆瓣小站:http://site.douban.com/disneymovie/
  因故在伦敦盘桓期间,杰克·斯派罗船长(约翰尼·德普 Johnny Depp 饰)被英国国王的士兵抓住。原来传说中的“不老泉”重现世间,为了赶在西班牙之前得手。英国国王乔治二世(Richard Griffiths 饰)希望杰克和巴波萨船长(杰弗里·拉什 Geoffrey Rush 饰)联手出海寻找。倔强傲慢的杰克断然拒绝,阴差阳错进入了假杰克船长的巢穴,更由此邂逅了旧老情人安吉莉卡(佩妮洛普·克鲁兹 Penélope Cruz 饰)。各种因素促使迫使他加入了安吉莉卡的船队,更和她的父亲——臭名昭著海盗“黑胡子”(伊恩·麦柯肖恩 Ian McShane 饰)搅在了一起。新的冒险就在这纷乱中展开,无数的危险和诱惑等在大海的另一边……
加勒比海盗:魔盗狂潮(港) / 加勒比海盗 神鬼奇航:幽灵海(台) / 加勒比海盗4:陌生的潮汐 / Pirates 4/加勒比海盗4:惊涛怪浪4k Pirates.Of.The.Caribbean.On.Stranger.Tides.2011.iNTERNAL.HDR.2160p.WEB.H265电影信息
  1. Video
  2. ID : 1
  3. Format : HEVC
  4. Format/Info : High Efficiency Video Coding
  5. Format profile : Main 10@L5@High
  6. Codec ID : V_MPEGH/ISO/HEVC
  7. Duration : 2 h 18 min
  8. Bit rate : 16.3 Mb/s
  9. Width : 3 840 pixels
  10. Height : 2 160 pixels
  11. Display aspect ratio : 16:9
  12. Frame rate mode : Constant
  13. Frame rate : 23.976 (24000/1001) FPS
  14. Color space : YUV
  15. Chroma subsampling : 4:2:0
  16. Bit depth : 10 bits
  17. Bits/(Pixel*Frame) : 0.082
  18. Stream size : 15.8 GiB (98%)
  19. Default : Yes
  20. Forced : No
  21. Color range : Limited
  22. Color primaries : BT.2020
  23. Transfer characteristics : PQ
  24. Matrix coefficients : BT.2020 non-constant

  25. Audio
  26. ID : 2
  27. Format : E-AC-3
  28. Format/Info : Enhanced AC-3
  29. Commercial name : Dolby Digital Plus
  30. Codec ID : A_EAC3
  31. Duration : 2 h 18 min
  32. Bit rate mode : Constant
  33. Bit rate : 256 kb/s
  34. Channel(s) : 6 channels
  35. Channel layout : L R C LFE Ls Rs
  36. Sampling rate : 48.0 kHz
  37. Frame rate : 31.250 FPS (1536 SPF)
  38. Compression mode : Lossy
  39. Stream size : 254 MiB (2%)
  40. Title : English
  41. Language : English
  42. Service kind : Complete Main
  43. Default : Yes
  44. Forced : No

  45. Text #1
  46. ID : 3
  47. Format : UTF-8
  48. Codec ID : S_TEXT/UTF8
  49. Codec ID/Info : UTF-8 Plain Text
  50. Duration : 2 h 16 min
  51. Bit rate : 50 b/s
  52. Count of elements : 1639
  53. Stream size : 50.0 KiB (0%)
  54. Title : English [SDH]
  55. Language : English
  56. Default : No
  57. Forced : No

  58. Text #2
  59. ID : 4
  60. Format : UTF-8
  61. Codec ID : S_TEXT/UTF8
  62. Codec ID/Info : UTF-8 Plain Text
  63. Duration : 2 h 6 min
  64. Bit rate : 0 b/s
  65. Count of elements : 5
  66. Stream size : 138 Bytes (0%)
  67. Title : Castilian [Forced]
  68. Language : Spanish
  69. Default : No
  70. Forced : Yes

  71. Text #3
  72. ID : 5
  73. Format : UTF-8
  74. Codec ID : S_TEXT/UTF8
  75. Codec ID/Info : UTF-8 Plain Text
  76. Duration : 2 h 6 min
  77. Bit rate : 44 b/s
  78. Count of elements : 1281
  79. Stream size : 41.2 KiB (0%)
  80. Title : Castilian [Full]
  81. Language : Spanish
  82. Default : No
  83. Forced : No

  84. Text #4
  85. ID : 6
  86. Format : UTF-8
  87. Codec ID : S_TEXT/UTF8
  88. Codec ID/Info : UTF-8 Plain Text
  89. Duration : 2 h 6 min
  90. Bit rate : 0 b/s
  91. Count of elements : 6
  92. Stream size : 178 Bytes (0%)
  93. Title : Spanish [Forced]
  94. Language : Spanish
  95. Default : No
  96. Forced : Yes

  97. Text #5
  98. ID : 7
  99. Format : UTF-8
  100. Codec ID : S_TEXT/UTF8
  101. Codec ID/Info : UTF-8 Plain Text
  102. Duration : 2 h 6 min
  103. Bit rate : 43 b/s
  104. Count of elements : 1265
  105. Stream size : 40.6 KiB (0%)
  106. Title : Spanish [Full]
  107. Language : Spanish
  108. Default : No
  109. Forced : No

  110. Text #6
  111. ID : 8
  112. Format : UTF-8
  113. Codec ID : S_TEXT/UTF8
  114. Codec ID/Info : UTF-8 Plain Text
  115. Duration : 2 h 6 min
  116. Bit rate : 0 b/s
  117. Count of elements : 4
  118. Stream size : 129 Bytes (0%)
  119. Title : French (Canada) [Forced]
  120. Language : French
  121. Default : No
  122. Forced : Yes

  123. Text #7
  124. ID : 9
  125. Format : UTF-8
  126. Codec ID : S_TEXT/UTF8
  127. Codec ID/Info : UTF-8 Plain Text
  128. Duration : 2 h 6 min
  129. Bit rate : 39 b/s
  130. Count of elements : 1232
  131. Stream size : 37.0 KiB (0%)
  132. Title : French (Canada) [Full]
  133. Language : French
  134. Default : No
  135. Forced : No

  136. Text #8
  137. ID : 10
  138. Format : UTF-8
  139. Codec ID : S_TEXT/UTF8
  140. Codec ID/Info : UTF-8 Plain Text
  141. Duration : 2 h 7 min
  142. Bit rate : 66 b/s
  143. Count of elements : 1824
  144. Stream size : 62.5 KiB (0%)
  145. Title : French (Canada) [SDH]
  146. Language : French
  147. Default : No
  148. Forced : No

  149. Text #9
  150. ID : 11
  151. Format : UTF-8
  152. Codec ID : S_TEXT/UTF8
  153. Codec ID/Info : UTF-8 Plain Text
  154. Duration : 2 h 6 min
  155. Bit rate : 0 b/s
  156. Count of elements : 3
  157. Stream size : 97.0 Bytes (0%)
  158. Title : German [Forced]
  159. Language : German
  160. Default : No
  161. Forced : Yes
复制代码

加勒比海盗:魔盗狂潮(港) / 加勒比海盗 神鬼奇航:幽灵海(台) / 加勒比海盗4:陌生的潮汐 / Pirates 4/加勒比海盗4:惊涛怪浪4k Pirates.Of.The.Caribbean.On.Stranger.Tides.2011.iNTERNAL.HDR.2160p.WEB.H265电影下载
加勒比海盗4:惊涛怪浪4k Pirates.Of.The.Caribbean.On.Stranger.Tides.2011.iNTERNAL.HDR.2160p.WEB.H265【16.03 GB】
加勒比海盗4:惊涛怪浪4k Pirates.Of.The.Caribbean.On.Stranger.Tides.2011.i.torrent (80.84 KB, 售价: 10 金币)
热门电影
关闭

站长通知上一条 /1 下一条

Copyright   ©2015-2016  4k群  Powered by©Discuz!  技术支持:4K群