鬼影特攻:以暴制暴4K.6.Underground.2019.2160p电影下载

[复制链接]
朱古力小酥酥 发表于 2020-10-14 21:53 | 显示全部楼层 |阅读模式
电影频道
电影封面:
片  名: 鬼影特攻:以暴制暴4K
国  家: 美国   
电影分类: 动作   惊悚   
分 辨 率: 4K(3840x2160)    
画质标准: 其他 
电影声道: 5.1声道   
资源大小: 41.16 GB
剧情简介: 来自世界各地的六人,个个都是各自领域的佼佼者。他们之所以被选中,不单是因为能力出众,还在于其独特的志向:他们想抹杀自己的过去以改变未来。一位神秘的领袖(瑞恩·雷诺兹饰)将他们召集到一起组成了这个团队,他毕生唯一的使命就是确保即使他和自己的同伴会被遗忘,但也要让人们永远铭记他们所做的一切。
地下6号/六尺之下 / 飞天遁地/Six Underground/鬼影特攻:以暴制暴 4K.6.Underground.2019.2160p.NF.WEBRip.DDP5.1.Atmos.x264-电影信息
  1. Video
  2. ID : 1
  3. Format : AVC
  4. Format/Info : Advanced Video Codec
  5. Format profile : High@L5.1
  6. Format settings : CABAC / 7 Ref Frames
  7. Format settings, CABAC : Yes
  8. Format settings, Reference frames : 7 frames
  9. Codec ID : V_MPEG4/ISO/AVC
  10. Duration : 2 h 8 min
  11. Bit rate : 44.9 Mb/s
  12. Width : 3 840 pixels
  13. Height : 1 604 pixels
  14. Display aspect ratio : 2.40:1
  15. Frame rate mode : Constant
  16. Frame rate : 23.976 (24000/1001) FPS
  17. Color space : YUV
  18. Chroma subsampling : 4:2:0
  19. Bit depth : 8 bits
  20. Scan type : Progressive
  21. Bits/(Pixel*Frame) : 0.304
  22. Stream size : 40.5 GiB (98%)
  23. Writing library : x264 core 158 r2984 3759fcb
  24. Encoding settings : cabac=1 / ref=7 / deblock=1:-3:-3 / analyse=0x3:0x133 / me=umh / subme=10 / psy=1 / psy_rd=1.00:0.00 / mixed_ref=1 / me_range=48 / chroma_me=1 / trellis=2 / 8x8dct=1 / cqm=0 / deadzone=21,11 / fast_pskip=0 / chroma_qp_offset=-2 / threads=24 / lookahead_threads=4 / sliced_threads=0 / nr=0 / decimate=0 / interlaced=0 / bluray_compat=0 / constrained_intra=0 / bframes=8 / b_pyramid=2 / b_adapt=2 / b_bias=0 / direct=3 / weightb=1 / open_gop=0 / weightp=2 / keyint=250 / keyint_min=23 / scenecut=40 / intra_refresh=0 / rc=crf / mbtree=0 / crf=20.0 / qcomp=0.60 / qpmin=0 / qpmax=69 / qpstep=4 / ip_ratio=1.30 / pb_ratio=1.20 / aq=3:0.80
  25. Default : Yes
  26. Forced : No

  27. Audio
  28. ID : 2
  29. Format : E-AC-3 JOC
  30. Format/Info : Enhanced AC-3 with Joint Object Coding
  31. Commercial name : Dolby Digital Plus with Dolby Atmos
  32. Codec ID : A_EAC3
  33. Duration : 2 h 8 min
  34. Bit rate mode : Constant
  35. Bit rate : 768 kb/s
  36. Channel(s) : 6 channels
  37. Channel layout : L R C LFE Ls Rs
  38. Sampling rate : 48.0 kHz
  39. Frame rate : 31.250 FPS (1536 SPF)
  40. Compression mode : Lossy
  41. Stream size : 708 MiB (2%)
  42. Title : English
  43. Language : English
  44. Service kind : Complete Main
  45. Default : Yes
  46. Forced : No
  47. Complexity index : 16
  48. Number of dynamic objects : 15
  49. Bed channel count : 1 channel
  50. Bed channel configuration : LFE

  51. Text #1
  52. ID : 3
  53. Format : UTF-8
  54. Codec ID : S_TEXT/UTF8
  55. Codec ID/Info : UTF-8 Plain Text
  56. Duration : 2 h 6 min
  57. Bit rate : 66 b/s
  58. Count of elements : 1872
  59. Stream size : 61.7 KiB (0%)
  60. Language : English
  61. Default : No
  62. Forced : No

  63. Text #2
  64. ID : 4
  65. Format : UTF-8
  66. Codec ID : S_TEXT/UTF8
  67. Codec ID/Info : UTF-8 Plain Text
  68. Duration : 2 h 6 min
  69. Bit rate : 78 b/s
  70. Count of elements : 2192
  71. Stream size : 72.5 KiB (0%)
  72. Title : SDH
  73. Language : English
  74. Default : No
  75. Forced : No

  76. Text #3
  77. ID : 5
  78. Format : UTF-8
  79. Codec ID : S_TEXT/UTF8
  80. Codec ID/Info : UTF-8 Plain Text
  81. Duration : 2 h 5 min
  82. Bit rate : 99 b/s
  83. Count of elements : 1754
  84. Stream size : 91.7 KiB (0%)
  85. Language : Arabic
  86. Default : No
  87. Forced : No

  88. Text #4
  89. ID : 6
  90. Format : UTF-8
  91. Codec ID : S_TEXT/UTF8
  92. Codec ID/Info : UTF-8 Plain Text
  93. Duration : 2 h 5 min
  94. Bit rate : 51 b/s
  95. Count of elements : 1695
  96. Stream size : 46.9 KiB (0%)
  97. Language : Czech
  98. Default : No
  99. Forced : No

  100. Text #5
  101. ID : 7
  102. Format : UTF-8
  103. Codec ID : S_TEXT/UTF8
  104. Codec ID/Info : UTF-8 Plain Text
  105. Duration : 2 h 5 min
  106. Bit rate : 53 b/s
  107. Count of elements : 1634
  108. Stream size : 49.0 KiB (0%)
  109. Language : Danish
  110. Default : No
  111. Forced : No

  112. Text #6
  113. ID : 8
  114. Format : UTF-8
  115. Codec ID : S_TEXT/UTF8
  116. Codec ID/Info : UTF-8 Plain Text
  117. Duration : 2 h 5 min
  118. Bit rate : 58 b/s
  119. Count of elements : 1645
  120. Stream size : 53.9 KiB (0%)
  121. Language : German
  122. Default : No
  123. Forced : No

  124. Text #7
  125. ID : 9
  126. Format : UTF-8
  127. Codec ID : S_TEXT/UTF8
  128. Codec ID/Info : UTF-8 Plain Text
  129. Duration : 2 h 5 min
  130. Bit rate : 90 b/s
  131. Count of elements : 1716
  132. Stream size : 83.2 KiB (0%)
  133. Language : Greek
  134. Default : No
  135. Forced : No

  136. Text #8
  137. ID : 10
  138. Format : UTF-8
  139. Codec ID : S_TEXT/UTF8
  140. Codec ID/Info : UTF-8 Plain Text
  141. Duration : 2 h 7 min
  142. Bit rate : 55 b/s
  143. Count of elements : 1715
  144. Stream size : 51.6 KiB (0%)
  145. Language : Spanish
  146. Default : No
  147. Forced : No

  148. Text #9
  149. ID : 11
  150. Format : UTF-8
  151. Codec ID : S_TEXT/UTF8
  152. Codec ID/Info : UTF-8 Plain Text
  153. Duration : 2 h 5 min
  154. Bit rate : 52 b/s
  155. Count of elements : 1724
  156. Stream size : 48.3 KiB (0%)
  157. Title : European
  158. Language : Spanish
  159. Default : No
  160. Forced : No

  161. Text #10
  162. ID : 12
  163. Format : UTF-8
  164. Codec ID : S_TEXT/UTF8
  165. Codec ID/Info : UTF-8 Plain Text
  166. Duration : 2 h 5 min
  167. Bit rate : 52 b/s
  168. Count of elements : 1480
  169. Stream size : 48.3 KiB (0%)
  170. Language : Finnish
  171. Default : No
  172. Forced : No

  173. Text #11
  174. ID : 13
  175. Format : UTF-8
  176. Codec ID : S_TEXT/UTF8
  177. Codec ID/Info : UTF-8 Plain Text
  178. Duration : 2 h 5 min
  179. Bit rate : 58 b/s
  180. Count of elements : 1623
  181. Stream size : 53.9 KiB (0%)
  182. Language : French
  183. Default : No
  184. Forced : No

  185. Text #12
  186. ID : 14
  187. Format : UTF-8
  188. Codec ID : S_TEXT/UTF8
  189. Codec ID/Info : UTF-8 Plain Text
  190. Duration : 2 h 5 min
  191. Bit rate : 95 b/s
  192. Count of elements : 1705
  193. Stream size : 87.9 KiB (0%)
  194. Language : Hebrew
  195. Default : No
  196. Forced : No

  197. Text #13
  198. ID : 15
  199. Format : UTF-8
  200. Codec ID : S_TEXT/UTF8
  201. Codec ID/Info : UTF-8 Plain Text
  202. Duration : 2 h 5 min
  203. Bit rate : 151 b/s
  204. Count of elements : 1753
  205. Stream size : 139 KiB (0%)
  206. Language : Hindi
  207. Default : No
  208. Forced : No

  209. Text #14
  210. ID : 16
  211. Format : UTF-8
  212. Codec ID : S_TEXT/UTF8
  213. Codec ID/Info : UTF-8 Plain Text
  214. Duration : 2 h 5 min
  215. Bit rate : 54 b/s
  216. Count of elements : 1665
  217. Stream size : 50.0 KiB (0%)
  218. Language : Hungarian
  219. Default : No
  220. Forced : No

  221. Text #15
  222. ID : 17
  223. Format : UTF-8
  224. Codec ID : S_TEXT/UTF8
  225. Codec ID/Info : UTF-8 Plain Text
  226. Duration : 2 h 5 min
  227. Bit rate : 52 b/s
  228. Count of elements : 1742
  229. Stream size : 48.3 KiB (0%)
  230. Language : Indonesian
  231. Default : No
  232. Forced : No

  233. Text #16
  234. ID : 18
  235. Format : UTF-8
  236. Codec ID : S_TEXT/UTF8
  237. Codec ID/Info : UTF-8 Plain Text
  238. Duration : 2 h 5 min
  239. Bit rate : 52 b/s
  240. Count of elements : 1735
  241. Stream size : 48.5 KiB (0%)
  242. Language : Italian
  243. Default : No
  244. Forced : No

  245. Text #17
  246. ID : 19
  247. Format : UTF-8
  248. Codec ID : S_TEXT/UTF8
  249. Codec ID/Info : UTF-8 Plain Text
  250. Duration : 2 h 7 min
  251. Bit rate : 46 b/s
  252. Count of elements : 1805
  253. Stream size : 43.9 KiB (0%)
  254. Language : Japanese
  255. Default : No
  256. Forced : No

  257. Text #18
  258. ID : 20
  259. Format : UTF-8
  260. Codec ID : S_TEXT/UTF8
  261. Codec ID/Info : UTF-8 Plain Text
  262. Duration : 2 h 7 min
  263. Bit rate : 61 b/s
  264. Count of elements : 1757
  265. Stream size : 57.4 KiB (0%)
  266. Language : Korean
  267. Default : No
  268. Forced : No

  269. Text #19
  270. ID : 21
  271. Format : UTF-8
  272. Codec ID : S_TEXT/UTF8
  273. Codec ID/Info : UTF-8 Plain Text
  274. Duration : 2 h 5 min
  275. Bit rate : 49 b/s
  276. Count of elements : 1658
  277. Stream size : 45.8 KiB (0%)
  278. Language : Norwegian Bokmal
  279. Default : No
  280. Forced : No

  281. Text #20
  282. ID : 22
  283. Format : UTF-8
  284. Codec ID : S_TEXT/UTF8
  285. Codec ID/Info : UTF-8 Plain Text
  286. Duration : 2 h 5 min
  287. Bit rate : 51 b/s
  288. Count of elements : 1394
  289. Stream size : 47.0 KiB (0%)
  290. Language : Dutch
  291. Default : No
  292. Forced : No

  293. Text #21
  294. ID : 23
  295. Format : UTF-8
  296. Codec ID : S_TEXT/UTF8
  297. Codec ID/Info : UTF-8 Plain Text
  298. Duration : 2 h 5 min
  299. Bit rate : 47 b/s
  300. Count of elements : 1717
  301. Stream size : 44.1 KiB (0%)
  302. Language : Polish
  303. Default : No
  304. Forced : No

  305. Text #22
  306. ID : 24
  307. Format : UTF-8
  308. Codec ID : S_TEXT/UTF8
  309. Codec ID/Info : UTF-8 Plain Text
  310. Duration : 2 h 5 min
  311. Bit rate : 58 b/s
  312. Count of elements : 1724
  313. Stream size : 53.6 KiB (0%)
  314. Language : Portuguese
  315. Default : No
  316. Forced : No

  317. Text #23
  318. ID : 25
  319. Format : UTF-8
  320. Codec ID : S_TEXT/UTF8
  321. Codec ID/Info : UTF-8 Plain Text
  322. Duration : 2 h 5 min
  323. Bit rate : 50 b/s
  324. Count of elements : 1678
  325. Stream size : 46.5 KiB (0%)
  326. Title : Brazilian
  327. Language : Portuguese
  328. Default : No
  329. Forced : No

  330. Text #24
  331. ID : 26
  332. Format : UTF-8
  333. Codec ID : S_TEXT/UTF8
  334. Codec ID/Info : UTF-8 Plain Text
  335. Duration : 2 h 5 min
  336. Bit rate : 61 b/s
  337. Count of elements : 1677
  338. Stream size : 56.5 KiB (0%)
  339. Language : Romanian
  340. Default : No
  341. Forced : No

  342. Text #25
  343. ID : 27
  344. Format : UTF-8
  345. Codec ID : S_TEXT/UTF8
  346. Codec ID/Info : UTF-8 Plain Text
  347. Duration : 2 h 5 min
  348. Bit rate : 87 b/s
  349. Count of elements : 1643
  350. Stream size : 80.2 KiB (0%)
  351. Language : Russian
  352. Default : No
  353. Forced : No

  354. Text #26
  355. ID : 28
  356. Format : UTF-8
  357. Codec ID : S_TEXT/UTF8
  358. Codec ID/Info : UTF-8 Plain Text
  359. Duration : 2 h 5 min
  360. Bit rate : 53 b/s
  361. Count of elements : 1537
  362. Stream size : 49.3 KiB (0%)
  363. Language : Swedish
  364. Default : No
  365. Forced : No

  366. Text #27
  367. ID : 29
  368. Format : UTF-8
  369. Codec ID : S_TEXT/UTF8
  370. Codec ID/Info : UTF-8 Plain Text
  371. Duration : 2 h 5 min
  372. Bit rate : 146 b/s
  373. Count of elements : 1754
  374. Stream size : 135 KiB (0%)
  375. Language : Thai
  376. Default : No
  377. Forced : No

  378. Text #28
  379. ID : 30
  380. Format : UTF-8
  381. Codec ID : S_TEXT/UTF8
  382. Codec ID/Info : UTF-8 Plain Text
  383. Duration : 2 h 7 min
  384. Bit rate : 52 b/s
  385. Count of elements : 1634
  386. Stream size : 49.2 KiB (0%)
  387. Language : Turkish
  388. Default : No
  389. Forced : No

  390. Text #29
  391. ID : 31
  392. Format : UTF-8
  393. Codec ID : S_TEXT/UTF8
  394. Codec ID/Info : UTF-8 Plain Text
  395. Duration : 2 h 5 min
  396. Bit rate : 75 b/s
  397. Count of elements : 1725
  398. Stream size : 69.0 KiB (0%)
  399. Language : Vietnamese
  400. Default : No
  401. Forced : No

  402. Text #30
  403. ID : 32
  404. Format : UTF-8
  405. Codec ID : S_TEXT/UTF8
  406. Codec ID/Info : UTF-8 Plain Text
  407. Duration : 2 h 7 min
  408. Bit rate : 65 b/s
  409. Count of elements : 1761
  410. Stream size : 61.5 KiB (0%)
  411. Title : Simplified
  412. Language : Chinese
  413. Default : No
  414. Forced : No

  415. Text #31
  416. ID : 33
  417. Format : UTF-8
  418. Codec ID : S_TEXT/UTF8
  419. Codec ID/Info : UTF-8 Plain Text
  420. Duration : 2 h 5 min
  421. Bit rate : 56 b/s
  422. Count of elements : 1771
  423. Stream size : 51.9 KiB (0%)
  424. Title : Traditional
  425. Language : Chinese
  426. Default : No
  427. Forced : No
复制代码

地下6号/六尺之下 / 飞天遁地/Six Underground/鬼影特攻:以暴制暴 4K.6.Underground.2019.2160p.NF.WEBRip.DDP5.1.Atmos.x264-电影下载
鬼影特攻:以暴制暴4K.6.Underground.2019.2160p.NF.WEBRip.DDP5.1.Atmos.x264【41.16GB】
鬼影特攻:以暴制暴4K.6.Underground.2019.2160p.NF.WEBRip.DDP5.1.Atmos.x264-.torrent (103.44 KB, 售价: 10 金币)
热门电影
关闭

站长通知上一条 /1 下一条

Copyright   ©2015-2016  4k群  Powered by©Discuz!  技术支持:4K群