圣女4k Santa.Girl.2019.2160p-4k电影下载

[复制链接]
朱古力小酥酥 发表于 2020-10-14 22:03 | 显示全部楼层 |阅读模式
电影频道
电影封面:
片  名: 圣女4k
国  家: 美国   
电影分类: 喜剧   爱情片   
分 辨 率: 4K(3840x2160)    
画质标准: 其他 
电影声道: 5.1声道   
资源大小: 18.79 GB
剧情简介: The only daughter of Santa Claus (Barry Bostwick "Spin City") wants to experience the "real world" before she must marry the son of Jack Frost and take over the family business. Cassie Claus (Jennifer Stone "Wizards of Waverly Place"), along with her trusty elf, sets off to college while trying to keep her magic powers and famous father a secret. At school, Cassie is pursued by two boys: Sam (Devon Werkheiser "Ned\'s Declassified School Survival Guide") who is sweetly awkward and J.R., handsome and wealthy. As her impending arranged marriage looms, Cassie struggles with her feelings for Sam and her obligation to her father and to Christmas itself.
圣女4k Santa.Girl.2019.2160p.NF.WEBRip.x265.10bit.SDR.DDP5.1电影信息
  1. Video
  2. ID : 1
  3. Format : HEVC
  4. Format/Info : High Efficiency Video Coding
  5. Format profile : Main 10@L5.1@High
  6. Codec ID : V_MPEGH/ISO/HEVC
  7. Duration : 1 h 30 min
  8. Bit rate : 28.5 Mb/s
  9. Width : 3 840 pixels
  10. Height : 2 020 pixels
  11. Display aspect ratio : 1.901
  12. Frame rate mode : Constant
  13. Frame rate : 23.976 (24000/1001) FPS
  14. Color space : YUV
  15. Chroma subsampling : 4:2:0
  16. Bit depth : 10 bits
  17. Bits/(Pixel*Frame) : 0.153
  18. Stream size : 18.0 GiB (96%)
  19. Writing library : x265 3.2+9-971180b100f8:[Windows][MSVC 1923][64 bit] 10bit
  20. Encoding settings : cpuid=1111039 / frame-threads=4 / numa-pools=28,0 / wpp / no-pmode / no-pme / no-psnr / no-ssim / log-level=2 / input-csp=1 / input-res=3840x2020 / interlace=0 / total-frames=0 / level-idc=51 / high-tier=1 / uhd-bd=0 / ref=5 / no-allow-non-conformance / no-repeat-headers / annexb / no-aud / no-hrd / info / hash=0 / no-temporal-layers / open-gop / min-keyint=23 / keyint=250 / gop-lookahead=0 / bframes=8 / b-adapt=2 / b-pyramid / bframe-bias=0 / rc-lookahead=40 / lookahead-slices=0 / scenecut=40 / radl=0 / no-splice / no-intra-refresh / ctu=64 / min-cu-size=8 / no-rect / no-amp / max-tu-size=32 / tu-inter-depth=3 / tu-intra-depth=3 / limit-tu=0 / rdoq-level=1 / dynamic-rd=0.00 / no-ssim-rd / signhide / no-tskip / nr-intra=0 / nr-inter=0 / no-constrained-intra / strong-intra-smoothing / max-merge=5 / limit-refs=0 / no-limit-modes / me=3 / subme=4 / merange=57 / temporal-mvp / no-frame-dup / no-hme / weightp / weightb / no-analyze-src-pics / deblock=0:0 / no-sao / no-sao-non-deblock / rd=6 / selective-sao=0 / no-early-skip / rskip / no-fast-intra / no-tskip-fast / no-cu-lossless / b-intra / no-splitrd-skip / rdpenalty=0 / psy-rd=4.00 / psy-rdoq=8.00 / no-rd-refine / no-lossless / cbqpoffs=0 / crqpoffs=0 / rc=crf / crf=17.0 / qcomp=0.60 / qpstep=4 / stats-write=0 / stats-read=0 / vbv-maxrate=160000 / vbv-bufsize=160000 / vbv-init=0.9 / crf-max=0.0 / crf-min=0.0 / ipratio=1.40 / pbratio=1.30 / aq-mode=2 / aq-strength=1.00 / cutree / zone-count=0 / no-strict-cbr / qg-size=32 / no-rc-grain / qpmax=69 / qpmin=0 / no-const-vbv / sar=0 / overscan=0 / videoformat=5 / range=0 / colorprim=2 / transfer=2 / colormatrix=2 / chromaloc=0 / display-window=0 / cll=0,0 / min-luma=0 / max-luma=1023 / log2-max-poc-lsb=8 / vui-timing-info / vui-hrd-info / slices=1 / no-opt-qp-pps / no-opt-ref-list-length-pps / no-multi-pass-opt-rps / scenecut-bias=0.05 / no-opt-cu-delta-qp / no-aq-motion / no-hdr / no-hdr-opt / no-dhdr10-opt / no-idr-recovery-sei / analysis-reuse-level=5 / scale-factor=0 / refine-intra=0 / refine-inter=0 / refine-mv=1 / refine-ctu-distortion=0 / no-limit-sao / ctu-info=0 / no-lowpass-dct / refine-analysis-type=0 / copy-pic=1 / max-ausize-factor=1.0 / no-dynamic-refine / no-single-sei / no-hevc-aq / no-svt / no-field / qp-adaptation-range=1.00
  21. Default : Yes
  22. Forced : No

  23. Audio
  24. ID : 2
  25. Format : E-AC-3
  26. Format/Info : Enhanced AC-3
  27. Commercial name : Dolby Digital Plus
  28. Codec ID : A_EAC3
  29. Duration : 1 h 30 min
  30. Bit rate mode : Constant
  31. Bit rate : 640 kb/s
  32. Channel(s) : 6 channels
  33. Channel layout : L R C LFE Ls Rs
  34. Sampling rate : 48.0 kHz
  35. Frame rate : 31.250 FPS (1536 SPF)
  36. Compression mode : Lossy
  37. Stream size : 415 MiB (2%)
  38. Language : English
  39. Service kind : Complete Main
  40. Default : Yes
  41. Forced : No

  42. Text
  43. ID : 3
  44. Format : UTF-8
  45. Codec ID : S_TEXT/UTF8
  46. Codec ID/Info : UTF-8 Plain Text
  47. Title : SDH
  48. Language : English
  49. Default : No
  50. Forced : No
复制代码

圣女4k Santa.Girl.2019.2160p.NF.WEBRip.x265.10bit.SDR.DDP5.1电影下载
圣女4k Santa.Girl.2019.2160p.NF.WEBRip.x265.10bit.SDR.DDP5.1【18.79 GB】
圣女4k Santa.Girl.2019.2160p.NF.WEBRip.x265.10bit.SDR.DDP5.1-TrollUHD.torrent (94.52 KB, 售价: 10 金币)
热门电影
关闭

站长通知上一条 /1 下一条

Copyright   ©2015-2016  4k群  Powered by©Discuz!  技术支持:4K群