爱尔兰人4k The.Irishman.2019.2160p-4k电影下载

[复制链接]
朱古力小酥酥 发表于 2020-10-15 22:10 | 显示全部楼层 |阅读模式
电影频道
电影封面:
片  名: 爱尔兰人4k
国  家: 美国   
电影分类: 犯罪   剧情   传记   
分 辨 率: 4K(3840x2160)    
画质标准: 其他 
电影声道: 5.1声道   
资源大小: 68.61 GB
剧情简介: 《爱尔兰人》为马丁·斯科塞斯执导的传奇巨制,罗伯特·德尼罗、阿尔·帕西诺和乔·佩西主演。通过二战老兵弗兰克·希兰的视角,讲述了战后美国有组织犯罪的故事。弗兰克·希兰是一名骗子和杀手,曾经在 20 世纪最恶名昭彰的人物身边工作。该电影跨越数十年,记录了美国历史上最大的悬案之一,即传奇工会领袖吉米·霍法失踪案,以宏大的故事之旅,展现有组织犯罪的隐秘通道:其内部运作、仇敌以及与主流政治的瓜葛。
爱尔兰杀手(港) / 听说你刷房子了 / I Heard You Paint Houses/爱尔兰人4k The.Irishman.2019.2160p.NF.WEBRip.x265.10bit.HDR.DD5.1.Atmos电影信息
  1. Video
  2. ID : 1
  3. Format : HEVC
  4. Format/Info : High Efficiency Video Coding
  5. Format profile : Main 10@L6@High
  6. HDR format : SMPTE ST 2086, HDR10 compatible
  7. Codec ID : V_MPEGH/ISO/HEVC
  8. Duration : 3 h 28 min
  9. Bit rate : 17.3 Mb/s
  10. Width : 3 840 pixels
  11. Height : 2 080 pixels
  12. Display aspect ratio : 1.85:1
  13. Frame rate mode : Constant
  14. Frame rate : 24.000 FPS
  15. Color space : YUV
  16. Chroma subsampling : 4:2:0 (Type 2)
  17. Bit depth : 10 bits
  18. Bits/(Pixel*Frame) : 0.090
  19. Stream size : 25.1 GiB (96%)
  20. Language : English
  21. Default : Yes
  22. Forced : No
  23. Color range : Limited
  24. Color primaries : BT.2020
  25. Transfer characteristics : PQ
  26. Matrix coefficients : BT.2020 non-constant
  27. Mastering display color primaries : Display P3
  28. Mastering display luminance : min: 0.0001 cd/m2, max: 1000 cd/m2
  29. Maximum Content Light Level : 1014 cd/m2
  30. Maximum Frame-Average Light Level : 263 cd/m2

  31. Audio
  32. ID : 2
  33. Format : E-AC-3 JOC
  34. Format/Info : Enhanced AC-3 with Joint Object Coding
  35. Commercial name : Dolby Digital Plus with Dolby Atmos
  36. Codec ID : A_EAC3
  37. Duration : 3 h 28 min
  38. Bit rate mode : Constant
  39. Bit rate : 768 kb/s
  40. Channel(s) : 6 channels
  41. Channel layout : L R C LFE Ls Rs
  42. Sampling rate : 48.0 kHz
  43. Frame rate : 31.250 FPS (1536 SPF)
  44. Compression mode : Lossy
  45. Stream size : 1.12 GiB (4%)
  46. Language : English
  47. Service kind : Complete Main
  48. Default : Yes
  49. Forced : No
  50. Complexity index : 16
  51. Number of dynamic objects : 15
  52. Bed channel count : 1 channel
  53. Bed channel configuration : LFE

  54. Text #1
  55. ID : 3
  56. Format : UTF-8
  57. Codec ID : S_TEXT/UTF8
  58. Codec ID/Info : UTF-8 Plain Text
  59. Duration : 3 h 16 min
  60. Bit rate : 76 b/s
  61. Count of elements : 3470
  62. Stream size : 111 KiB (0%)
  63. Language : English
  64. Default : Yes
  65. Forced : No

  66. Text #2
  67. ID : 4
  68. Format : UTF-8
  69. Codec ID : S_TEXT/UTF8
  70. Codec ID/Info : UTF-8 Plain Text
  71. Duration : 3 h 20 min
  72. Bit rate : 83 b/s
  73. Count of elements : 3813
  74. Stream size : 123 KiB (0%)
  75. Title : SDH
  76. Language : English
  77. Default : No
  78. 复制代码

  79. 爱尔兰人4kThe.Irishman.2019.2160p.NF.WEBRip.DDP5.1.Atmos.x264【68.61 GB】电影信息
  80. Video
  81. ID : 1
  82. Format : AVC
  83. Format/Info : Advanced Video Codec
  84. Format profile : High@L5.1
  85. Format settings : CABAC / 5 Ref Frames
  86. Format settings, CABAC : Yes
  87. Format settings, Reference frames : 5 frames
  88. Codec ID : V_MPEG4/ISO/AVC
  89. Duration : 3 h 29 min
  90. Bit rate : 46.1 Mb/s
  91. Width : 3 840 pixels
  92. Height : 2 076 pixels
  93. Display aspect ratio : 1.85:1
  94. Frame rate mode : Constant
  95. Frame rate : 24.000 FPS
  96. Color space : YUV
  97. Chroma subsampling : 4:2:0
  98. Bit depth : 8 bits
  99. Scan type : Progressive
  100. Bits/(Pixel*Frame) : 0.241
  101. Stream size : 67.5 GiB (98%)
  102. Writing library : x264 core 157 r2969 d4099dd
  103. Encoding settings : cabac=1 / ref=5 / deblock=1:-3:-3 / analyse=0x3:0x133 / me=umh / subme=10 / psy=1 / psy_rd=1.00:0.15 / mixed_ref=1 / me_range=48 / chroma_me=1 / trellis=2 / 8x8dct=1 / cqm=0 / deadzone=21,11 / fast_pskip=0 / chroma_qp_offset=-3 / threads=24 / lookahead_threads=4 / sliced_threads=0 / nr=0 / decimate=0 / interlaced=0 / bluray_compat=0 / constrained_intra=0 / bframes=8 / b_pyramid=2 / b_adapt=2 / b_bias=0 / direct=3 / weightb=1 / open_gop=0 / weightp=2 / keyint=250 / keyint_min=24 / scenecut=40 / intra_refresh=0 / rc=crf / mbtree=0 / crf=20.0 / qcomp=0.60 / qpmin=0 / qpmax=69 / qpstep=4 / ip_ratio=1.30 / pb_ratio=1.20 / aq=3:0.80
  104. Language : English
  105. Default : Yes
  106. Forced : No

  107. Audio
  108. ID : 2
  109. Format : E-AC-3 JOC
  110. Format/Info : Enhanced AC-3 with Joint Object Coding
  111. Commercial name : Dolby Digital Plus with Dolby Atmos
  112. Codec ID : A_EAC3
  113. Duration : 3 h 29 min
  114. Bit rate mode : Constant
  115. Bit rate : 768 kb/s
  116. Channel(s) : 6 channels
  117. Channel layout : L R C LFE Ls Rs
  118. Sampling rate : 48.0 kHz
  119. Frame rate : 31.250 FPS (1536 SPF)
  120. Compression mode : Lossy
  121. Stream size : 1.12 GiB (2%)
  122. Title : English
  123. Language : English
  124. Service kind : Complete Main
  125. Default : Yes
  126. Forced : No
  127. Complexity index : 16
  128. Number of dynamic objects : 15
  129. Bed channel count : 1 channel
  130. Bed channel configuration : LFE

  131. Text #1
  132. ID : 3
  133. Format : UTF-8
  134. Codec ID : S_TEXT/UTF8
  135. Codec ID/Info : UTF-8 Plain Text
  136. Duration : 57 s 292 ms
  137. Bit rate : 47 b/s
  138. Count of elements : 17
  139. Stream size : 343 Bytes (0%)
  140. Title : Forced
  141. Language : English
  142. Default : Yes
  143. Forced : Yes

  144. Text #2
  145. ID : 4
  146. Format : UTF-8
  147. Codec ID : S_TEXT/UTF8
  148. Codec ID/Info : UTF-8 Plain Text
  149. Duration : 3 h 20 min
  150. Bit rate : 89 b/s
  151. Count of elements : 3813
  152. Stream size : 131 KiB (0%)
  153. Title : SDH
  154. Language : English
  155. Default : No
  156. Forced : No

  157. Text #3
  158. ID : 5
  159. Format : UTF-8
  160. Codec ID : S_TEXT/UTF8
  161. Codec ID/Info : UTF-8 Plain Text
  162. Duration : 3 h 28 min
  163. Bit rate : 94 b/s
  164. Count of elements : 2980
  165. Stream size : 144 KiB (0%)
  166. Language : Arabic
  167. Default : No
  168. Forced : No

  169. Text #4
  170. ID : 6
  171. Format : UTF-8
  172. Codec ID : S_TEXT/UTF8
  173. Codec ID/Info : UTF-8 Plain Text
  174. Duration : 3 h 28 min
  175. Bit rate : 61 b/s
  176. Count of elements : 2974
  177. Stream size : 94.1 KiB (0%)
  178. Language : Czech
  179. Default : No
  180. Forced : No

  181. Text #5
  182. ID : 7
  183. Format : UTF-8
  184. Codec ID : S_TEXT/UTF8
  185. Codec ID/Info : UTF-8 Plain Text
  186. Duration : 3 h 28 min
  187. Bit rate : 60 b/s
  188. Count of elements : 2960
  189. Stream size : 92.3 KiB (0%)
  190. Language : Danish
  191. Default : No
  192. Forced : No

  193. Text #6
  194. ID : 8
  195. Format : UTF-8
  196. Codec ID : S_TEXT/UTF8
  197. Codec ID/Info : UTF-8 Plain Text
  198. Duration : 3 h 28 min
  199. Bit rate : 65 b/s
  200. Count of elements : 2982
  201. Stream size : 99.9 KiB (0%)
  202. Language : German
  203. Default : No
  204. Forced : No

  205. Text #7
  206. ID : 9
  207. Format : UTF-8
  208. Codec ID : S_TEXT/UTF8
  209. Codec ID/Info : UTF-8 Plain Text
  210. Duration : 3 h 28 min
  211. Bit rate : 106 b/s
  212. Count of elements : 2978
  213. Stream size : 163 KiB (0%)
  214. Language : Greek
  215. Default : No
  216. Forced : No

  217. Text #8
  218. ID : 10
  219. Format : UTF-8
  220. Codec ID : S_TEXT/UTF8
  221. Codec ID/Info : UTF-8 Plain Text
  222. Duration : 3 h 27 min
  223. Bit rate : 72 b/s
  224. Count of elements : 3089
  225. Stream size : 111 KiB (0%)
  226. Language : Spanish
  227. Default : No
  228. Forced : No

  229. Text #9
  230. ID : 11
  231. Format : UTF-8
  232. Codec ID : S_TEXT/UTF8
  233. Codec ID/Info : UTF-8 Plain Text
  234. Duration : 3 h 19 min
  235. Bit rate : 67 b/s
  236. Count of elements : 2716
  237. Stream size : 98.9 KiB (0%)
  238. Title : European
  239. Language : Spanish
  240. Default : No
  241. Forced : No

  242. Text #10
  243. ID : 12
  244. Format : UTF-8
  245. Codec ID : S_TEXT/UTF8
  246. Codec ID/Info : UTF-8 Plain Text
  247. Duration : 3 h 28 min
  248. Bit rate : 59 b/s
  249. Count of elements : 2966
  250. Stream size : 90.0 KiB (0%)
  251. Language : Finnish
  252. Default : No
  253. Forced : No

  254. Text #11
  255. ID : 13
  256. Format : UTF-8
  257. Codec ID : S_TEXT/UTF8
  258. Codec ID/Info : UTF-8 Plain Text
  259. Duration : 3 h 22 min
  260. Bit rate : 61 b/s
  261. Count of elements : 3221
  262. Stream size : 90.5 KiB (0%)
  263. Language : French
  264. Default : No
  265. Forced : No

  266. Text #12
  267. ID : 14
  268. Format : UTF-8
  269. Codec ID : S_TEXT/UTF8
  270. Codec ID/Info : UTF-8 Plain Text
  271. Duration : 3 h 28 min
  272. Bit rate : 95 b/s
  273. Count of elements : 2980
  274. Stream size : 145 KiB (0%)
  275. Language : Hebrew
  276. Default : No
  277. Forced : No

  278. Text #13
  279. ID : 15
  280. Format : UTF-8
  281. Codec ID : S_TEXT/UTF8
  282. Codec ID/Info : UTF-8 Plain Text
  283. Duration : 3 h 28 min
  284. Bit rate : 60 b/s
  285. Count of elements : 2956
  286. Stream size : 91.5 KiB (0%)
  287. Language : Hungarian
  288. Default : No
  289. Forced : No

  290. Text #14
  291. ID : 16
  292. Format : UTF-8
  293. Codec ID : S_TEXT/UTF8
  294. Codec ID/Info : UTF-8 Plain Text
  295. Duration : 3 h 28 min
  296. Bit rate : 64 b/s
  297. Count of elements : 2970
  298. Stream size : 97.8 KiB (0%)
  299. Language : Indonesian
  300. Default : No
  301. Forced : No

  302. Text #15
  303. ID : 17
  304. Format : UTF-8
  305. Codec ID : S_TEXT/UTF8
  306. Codec ID/Info : UTF-8 Plain Text
  307. Duration : 3 h 21 min
  308. Bit rate : 56 b/s
  309. Count of elements : 2690
  310. Stream size : 83.2 KiB (0%)
  311. Language : Italian
  312. Default : No
  313. Forced : No

  314. Text #16
  315. ID : 18
  316. Format : UTF-8
  317. Codec ID : S_TEXT/UTF8
  318. Codec ID/Info : UTF-8 Plain Text
  319. Duration : 3 h 22 min
  320. Bit rate : 55 b/s
  321. Count of elements : 2628
  322. Stream size : 82.9 KiB (0%)
  323. Language : Japanese
  324. Default : No
  325. Forced : No

  326. Text #17
  327. ID : 19
  328. Format : UTF-8
  329. Codec ID : S_TEXT/UTF8
  330. Codec ID/Info : UTF-8 Plain Text
  331. Duration : 3 h 28 min
  332. Bit rate : 63 b/s
  333. Count of elements : 2978
  334. Stream size : 96.1 KiB (0%)
  335. Language : Korean
  336. Default : No
  337. Forced : No

  338. Text #18
  339. ID : 20
  340. Format : UTF-8
  341. Codec ID : S_TEXT/UTF8
  342. Codec ID/Info : UTF-8 Plain Text
  343. Duration : 3 h 28 min
  344. Bit rate : 58 b/s
  345. Count of elements : 2970
  346. Stream size : 89.3 KiB (0%)
  347. Language : Norwegian Bokmal
  348. Default : No
  349. Forced : No

  350. Text #19
  351. ID : 21
  352. Format : UTF-8
  353. Codec ID : S_TEXT/UTF8
  354. Codec ID/Info : UTF-8 Plain Text
  355. Duration : 3 h 28 min
  356. Bit rate : 56 b/s
  357. Count of elements : 2943
  358. Stream size : 85.5 KiB (0%)
  359. Language : Dutch
  360. Default : No
  361. Forced : No

  362. Text #20
  363. ID : 22
  364. Format : UTF-8
  365. Codec ID : S_TEXT/UTF8
  366. Codec ID/Info : UTF-8 Plain Text
  367. Duration : 3 h 28 min
  368. Bit rate : 55 b/s
  369. Count of elements : 2959
  370. Stream size : 84.4 KiB (0%)
  371. Language : Polish
  372. Default : No
  373. Forced : No

  374. Text #21
  375. ID : 23
  376. Format : UTF-8
  377. Codec ID : S_TEXT/UTF8
  378. Codec ID/Info : UTF-8 Plain Text
  379. Duration : 3 h 28 min
  380. Bit rate : 66 b/s
  381. Count of elements : 2966
  382. Stream size : 101 KiB (0%)
  383. Language : Portuguese
  384. Default : No
  385. Forced : No

  386. Text #22
  387. ID : 24
  388. Format : UTF-8
  389. Codec ID : S_TEXT/UTF8
  390. Codec ID/Info : UTF-8 Plain Text
  391. Duration : 3 h 28 min
  392. Bit rate : 64 b/s
  393. Count of elements : 2973
  394. Stream size : 97.9 KiB (0%)
  395. Title : Brazilian
  396. Language : Portuguese
  397. Default : No
  398. Forced : No

  399. Text #23
  400. ID : 25
  401. Format : UTF-8
  402. Codec ID : S_TEXT/UTF8
  403. Codec ID/Info : UTF-8 Plain Text
  404. Duration : 3 h 28 min
  405. Bit rate : 64 b/s
  406. Count of elements : 2971
  407. Stream size : 98.6 KiB (0%)
  408. Language : Romanian
  409. Default : No
  410. Forced : No

  411. Text #24
  412. ID : 26
  413. Format : UTF-8
  414. Codec ID : S_TEXT/UTF8
  415. Codec ID/Info : UTF-8 Plain Text
  416. Duration : 3 h 28 min
  417. Bit rate : 97 b/s
  418. Count of elements : 2973
  419. Stream size : 148 KiB (0%)
  420. Language : Russian
  421. Default : No
  422. Forced : No

  423. Text #25
  424. ID : 27
  425. Format : UTF-8
  426. Codec ID : S_TEXT/UTF8
  427. Codec ID/Info : UTF-8 Plain Text
  428. Duration : 3 h 28 min
  429. Bit rate : 65 b/s
  430. Count of elements : 2966
  431. Stream size : 100 KiB (0%)
  432. Language : Swedish
  433. Default : No
  434. Forced : No

  435. Text #26
  436. ID : 28
  437. Format : UTF-8
  438. Codec ID : S_TEXT/UTF8
  439. Codec ID/Info : UTF-8 Plain Text
  440. Duration : 3 h 28 min
  441. Bit rate : 152 b/s
  442. Count of elements : 2984
  443. Stream size : 232 KiB (0%)
  444. Language : Thai
  445. Default : No
  446. Forced : No

  447. Text #27
  448. ID : 29
  449. Format : UTF-8
  450. Codec ID : S_TEXT/UTF8
  451. Codec ID/Info : UTF-8 Plain Text
  452. Duration : 3 h 28 min
  453. Bit rate : 62 b/s
  454. Count of elements : 2976
  455. Stream size : 95.1 KiB (0%)
  456. Language : Turkish
  457. Default : No
  458. Forced : No

  459. Text #28
  460. ID : 30
  461. Format : UTF-8
  462. Codec ID : S_TEXT/UTF8
  463. Codec ID/Info : UTF-8 Plain Text
  464. Duration : 3 h 28 min
  465. Bit rate : 76 b/s
  466. Count of elements : 2977
  467. Stream size : 117 KiB (0%)
  468. Language : Vietnamese
  469. Default : No
  470. Forced : No

  471. Text #29
  472. ID : 31
  473. Format : UTF-8
  474. Codec ID : S_TEXT/UTF8
  475. Codec ID/Info : UTF-8 Plain Text
  476. Duration : 3 h 28 min
  477. Bit rate : 59 b/s
  478. Count of elements : 2980
  479. Stream size : 90.1 KiB (0%)
  480. Title : Simplified
  481. Language : Chinese
  482. Default : No
  483. Forced : No

  484. Text #30
  485. ID : 32
  486. Format : UTF-8
  487. Codec ID : S_TEXT/UTF8
  488. Codec ID/Info : UTF-8 Plain Text
  489. Duration : 3 h 28 min
  490. Bit rate : 53 b/s
  491. Count of elements : 2980
  492. Stream size : 81.1 KiB (0%)
  493. Title : Traditional
  494. Language : Chinese
  495. Default : No
  496. Forced : No
复制代码

爱尔兰杀手(港) / 听说你刷房子了 / I Heard You Paint Houses/爱尔兰人4k The.Irishman.2019.2160p.NF.WEBRip.x265.10bit.HDR.DD5.1.Atmos电影下载
爱尔兰人4kThe.Irishman.2019.2160p.NF.WEBRip.DDP5.1.Atmos.x264【68.61 GB】
爱尔兰人4K The.Irishman.2019.2160p.NF.WEBRip.DDP5.1.Atmos.x264-NTb.torrent (172.06 KB, 售价: 10 金币)

评分

参与人数 1M值 +1 收起 理由
lin_5418 + 1 很给力!

查看全部评分

热门电影
关闭

站长通知上一条 /1 下一条

Copyright   ©2015-2016  4k群  Powered by©Discuz!  技术支持:4K群