续命之徒:绝命毒师电影4k El.Camino.A.Breaking.Bad.Movie.2019.2160p-4k电影

[复制链接]
朱古力小酥酥 发表于 2020-10-17 18:06 | 显示全部楼层 |阅读模式
电影频道
电影封面:
片  名: 续命之徒:绝命毒师电影4k
国  家: 美国   
电影分类: 犯罪   惊悚   剧情   
分 辨 率: 4K(3840x2160)    
画质标准: 其他 
电影声道: 5.1声道   
资源大小: 33.44 GB
剧情简介: Netflix 电视内容《续命之徒:绝命毒师电影》回归,主角杰西·平克曼(艾美奖得主亚伦·保尔饰演)再次与粉丝见面。杰西戏剧性地逃出囚禁后,他必须接受自己的过去,才有可能创造未来。这部扣人心弦的惊悚片由《绝命毒师》的创剧人文斯·吉里根编写和执导。该电影由马克·约翰逊、梅利莎·伯恩斯坦、查尔斯·纽沃斯、黛安娜·默瑟和亚伦·保尔以及 Sony Pictures Television 联合制作。
绝命毒师电影:续命之徒 / 格林布莱尔 / Greenbriar/续命之徒:绝命毒师电影4k El.Camino.A.Breaking.Bad.Movie.2019.2160p.NF.WEBRip.DDP5.1.Atmos.x264电影信息
  1. Video
  2. ID : 1
  3. Format : AVC
  4. Format/Info : Advanced Video Codec
  5. Format profile : High@L5.1
  6. Format settings : CABAC / 7 Ref Frames
  7. Format settings, CABAC : Yes
  8. Format settings, Reference frames : 7 frames
  9. Codec ID : V_MPEG4/ISO/AVC
  10. Duration : 2 h 2 min
  11. Bit rate : 38.2 Mb/s
  12. Width : 3 840 pixels
  13. Height : 1 604 pixels
  14. Display aspect ratio : 2.40:1
  15. Frame rate mode : Constant
  16. Frame rate : 24.000 FPS
  17. Color space : YUV
  18. Chroma subsampling : 4:2:0
  19. Bit depth : 8 bits
  20. Scan type : Progressive
  21. Bits/(Pixel*Frame) : 0.259
  22. Stream size : 32.8 GiB (98%)
  23. Writing library : x264 core 158 r2984+47 456d10a t_mod_New [0-bit[url=home.php?mod=space&uid=301412]@ALL[/url] X86_64]
  24. Encoding settings : cabac=1 / ref=7 / deblock=1:-3:-3 / analyse=0x3:0x133 / me=umh / subme=10 / psy=1 / fade_compensate=0.00 / psy_rd=1.00:0.15 / mixed_ref=1 / me_range=48 / chroma_me=1 / trellis=2 / 8x8dct=1 / cqm=0 / deadzone=21,11 / fast_pskip=0 / chroma_qp_offset=-3 / threads=12 / lookahead_threads=2 / sliced_threads=0 / nr=0 / decimate=0 / interlaced=0 / bluray_compat=0 / constrained_intra=0 / fgo=0 / bframes=8 / b_pyramid=2 / b_adapt=2 / b_bias=0 / direct=3 / weightb=1 / open_gop=0 / weightp=2 / keyint=250 / keyint_min=24 / scenecut=40 / intra_refresh=0 / rc=crf / mbtree=0 / crf=18.0000 / qcomp=0.60 / qpmin=0:0:0 / qpmax=69:69:69 / qpstep=4 / ip_ratio=1.30 / pb_ratio=1.20 / aq=3:0.80 / aq-sensitivity=10.00 / aq-factor=1.00:1.00:1.00 / aq2=0 / aq3=0
  25. Language : English
  26. Default : Yes
  27. Forced : No

  28. Audio
  29. ID : 2
  30. Format : E-AC-3 JOC
  31. Format/Info : Enhanced AC-3 with Joint Object Coding
  32. Commercial name : Dolby Digital Plus with Dolby Atmos
  33. Codec ID : A_EAC3
  34. Duration : 2 h 2 min
  35. Bit rate mode : Constant
  36. Bit rate : 768 kb/s
  37. Channel(s) : 6 channels
  38. Channel layout : L R C LFE Ls Rs
  39. Sampling rate : 48.0 kHz
  40. Frame rate : 31.250 FPS (1536 SPF)
  41. Compression mode : Lossy
  42. Stream size : 674 MiB (2%)
  43. Title : English
  44. Language : English
  45. Service kind : Complete Main
  46. Default : Yes
  47. Forced : No
  48. Complexity index : 16
  49. Number of dynamic objects : 15
  50. Bed channel count : 1 channel
  51. Bed channel configuration : LFE
复制代码

绝命毒师电影:续命之徒 / 格林布莱尔 / Greenbriar/续命之徒:绝命毒师电影4k El.Camino.A.Breaking.Bad.Movie.2019.2160p.NF.WEBRip.DDP5.1.Atmos.x264电影下载

续命之徒:绝命毒师电影4k El.Camino.A.Breaking.Bad.Movie.2019.2160p.NF.WEBRip.DDP5.1.Atmos.x264【33.44 GB】
续命之徒:绝命毒师电影4k El.Camino.A.Breaking.Bad.Movie.2019.2160p.NF.WEBRip.DDP.torrent (84.17 KB, 售价: 10 金币)
热门电影
关闭

站长通知上一条 /1 下一条

Copyright   ©2015-2016  4k群  Powered by©Discuz!  技术支持:4K群