我是你的女人4K.Im.Your.Woman.2020.电影下载

[复制链接]
朱古力小酥酥 发表于 2020-12-22 17:05 | 显示全部楼层 |阅读模式
电影频道
电影封面:
片  名: 我是你的女人4K
国  家: 美国   
电影分类: 犯罪   剧情   
分 辨 率: 4K(3840x2160)    
画质标准: HDR    
电影声道: 5.1声道   
资源大小: 13.05 GB
剧情简介: 瑞秋·布罗斯纳安将主演亚马逊新片[我是你的女人](I’m Your Woman,暂译)。[爱乐之城]制片人约旦·霍洛维茨将参与本片制作,并与其妻子朱莉·哈特共同撰写剧本,哈特担任本片导演。影片讲述由于丈夫的罪行,珍(布罗斯纳安饰)不得不带着孩子逃亡。随后母子二人的生活与一对男女交织在了一起,形成了一种不太可能的伙伴关系,他们在其中学会了生存以外的事情。该片将于今秋开拍。
我是你的女人4K.Im.Your.Woman.2020.2160p.AMZN.WEB-DL.x265.10bit.HDR10plus.DDP5.1-4k电影信息
  1. Video
  2. ID : 1
  3. Format : HEVC
  4. Format/Info : High Efficiency Video Coding
  5. Format profile : Main 10@L5@Main
  6. HDR format : SMPTE ST 2094 App 4, Version 1, HDR10+ Profile B compatible
  7. Codec ID : V_MPEGH/ISO/HEVC
  8. Duration : 2 h 0 min
  9. Bit rate : 14.9 Mb/s
  10. Width : 3 840 pixels
  11. Height : 1 600 pixels
  12. Display aspect ratio : 2.40:1
  13. Frame rate mode : Constant
  14. Frame rate : 23.976 (24000/1001) FPS
  15. Color space : YUV
  16. Chroma subsampling : 4:2:0
  17. Bit depth : 10 bits
  18. Bits/(Pixel*Frame) : 0.101
  19. Stream size : 12.5 GiB (96%)
  20. Default : Yes
  21. Forced : No
  22. Color range : Limited
  23. Color primaries : BT.2020
  24. Transfer characteristics : PQ
  25. Matrix coefficients : BT.2020 non-constant
  26. Mastering display color primaries : Display P3
  27. Mastering display luminance : min: 0.0001 cd/m2, max: 1000 cd/m2
  28. Maximum Content Light Level : 562 cd/m2
  29. Maximum Frame-Average Light Level : 213 cd/m2

  30. Audio
  31. ID : 2
  32. Format : E-AC-3
  33. Format/Info : Enhanced AC-3
  34. Commercial name : Dolby Digital Plus
  35. Codec ID : A_EAC3
  36. Duration : 2 h 0 min
  37. Bit rate mode : Constant
  38. Bit rate : 640 kb/s
  39. Channel(s) : 6 channels
  40. Channel layout : L R C LFE Ls Rs
  41. Sampling rate : 48.0 kHz
  42. Frame rate : 31.250 FPS (1536 SPF)
  43. Compression mode : Lossy
  44. Stream size : 551 MiB (4%)
  45. Language : English
  46. Service kind : Complete Main
  47. Default : Yes
  48. Forced : No

  49. Text #1
  50. ID : 3
  51. Format : UTF-8
  52. Codec ID : S_TEXT/UTF8
  53. Codec ID/Info : UTF-8 Plain Text
  54. Duration : 1 h 59 min
  55. Bit rate : 36 b/s
  56. Count of elements : 720
  57. Stream size : 32.2 KiB (0%)
  58. Language : Arabic
  59. Default : No
  60. Forced : No

  61. Text #2
  62. ID : 4
  63. Format : UTF-8
  64. Codec ID : S_TEXT/UTF8
  65. Codec ID/Info : UTF-8 Plain Text
  66. Duration : 1 h 59 min
  67. Bit rate : 20 b/s
  68. Count of elements : 718
  69. Stream size : 18.0 KiB (0%)
  70. Language : Danish
  71. Default : No
  72. Forced : No

  73. Text #3
  74. ID : 5
  75. Format : UTF-8
  76. Codec ID : S_TEXT/UTF8
  77. Codec ID/Info : UTF-8 Plain Text
  78. Duration : 1 h 59 min
  79. Bit rate : 22 b/s
  80. Count of elements : 691
  81. Stream size : 20.1 KiB (0%)
  82. Language : German
  83. Default : No
  84. Forced : No

  85. Text #4
  86. ID : 6
  87. Format : UTF-8
  88. Codec ID : S_TEXT/UTF8
  89. Codec ID/Info : UTF-8 Plain Text
  90. Duration : 1 h 59 min
  91. Bit rate : 39 b/s
  92. Count of elements : 1417
  93. Stream size : 34.4 KiB (0%)
  94. Title : (SDH)
  95. Language : English
  96. Default : No
  97. Forced : No

  98. Text #5
  99. ID : 7
  100. Format : UTF-8
  101. Codec ID : S_TEXT/UTF8
  102. Codec ID/Info : UTF-8 Plain Text
  103. Duration : 1 h 59 min
  104. Bit rate : 22 b/s
  105. Count of elements : 726
  106. Stream size : 19.7 KiB (0%)
  107. Language : fil
  108. Default : No
  109. Forced : No

  110. Text #6
  111. ID : 8
  112. Format : UTF-8
  113. Codec ID : S_TEXT/UTF8
  114. Codec ID/Info : UTF-8 Plain Text
  115. Duration : 1 h 59 min
  116. Bit rate : 21 b/s
  117. Count of elements : 728
  118. Stream size : 18.5 KiB (0%)
  119. Language : Finnish
  120. Default : No
  121. Forced : No

  122. Text #7
  123. ID : 9
  124. Format : UTF-8
  125. Codec ID : S_TEXT/UTF8
  126. Codec ID/Info : UTF-8 Plain Text
  127. Duration : 1 h 59 min
  128. Bit rate : 22 b/s
  129. Count of elements : 725
  130. Stream size : 19.6 KiB (0%)
  131. Language : French
  132. Default : No
  133. Forced : No

  134. Text #8
  135. ID : 10
  136. Format : UTF-8
  137. Codec ID : S_TEXT/UTF8
  138. Codec ID/Info : UTF-8 Plain Text
  139. Duration : 1 h 59 min
  140. Bit rate : 35 b/s
  141. Count of elements : 731
  142. Stream size : 31.1 KiB (0%)
  143. Language : Hebrew
  144. Default : No
  145. Forced : No

  146. Text #9
  147. ID : 11
  148. Format : UTF-8
  149. Codec ID : S_TEXT/UTF8
  150. Codec ID/Info : UTF-8 Plain Text
  151. Duration : 1 h 59 min
  152. Bit rate : 61 b/s
  153. Count of elements : 731
  154. Stream size : 53.8 KiB (0%)
  155. Language : Hindi
  156. Default : No
  157. Forced : No

  158. Text #10
  159. ID : 12
  160. Format : UTF-8
  161. Codec ID : S_TEXT/UTF8
  162. Codec ID/Info : UTF-8 Plain Text
  163. Duration : 1 h 59 min
  164. Bit rate : 21 b/s
  165. Count of elements : 730
  166. Stream size : 19.1 KiB (0%)
  167. Language : Indonesian
  168. Default : No
  169. Forced : No

  170. Text #11
  171. ID : 13
  172. Format : UTF-8
  173. Codec ID : S_TEXT/UTF8
  174. Codec ID/Info : UTF-8 Plain Text
  175. Duration : 1 h 59 min
  176. Bit rate : 21 b/s
  177. Count of elements : 730
  178. Stream size : 18.7 KiB (0%)
  179. Language : Italian
  180. Default : No
  181. Forced : No

  182. Text #12
  183. ID : 14
  184. Format : UTF-8
  185. Codec ID : S_TEXT/UTF8
  186. Codec ID/Info : UTF-8 Plain Text
  187. Duration : 1 h 59 min
  188. Bit rate : 19 b/s
  189. Count of elements : 741
  190. Stream size : 16.8 KiB (0%)
  191. Language : Japanese
  192. Default : No
  193. Forced : No

  194. Text #13
  195. ID : 15
  196. Format : UTF-8
  197. Codec ID : S_TEXT/UTF8
  198. Codec ID/Info : UTF-8 Plain Text
  199. Duration : 1 h 59 min
  200. Bit rate : 23 b/s
  201. Count of elements : 731
  202. Stream size : 20.3 KiB (0%)
  203. Language : Korean
  204. Default : No
  205. Forced : No

  206. Text #14
  207. ID : 16
  208. Format : UTF-8
  209. Codec ID : S_TEXT/UTF8
  210. Codec ID/Info : UTF-8 Plain Text
  211. Duration : 1 h 59 min
  212. Bit rate : 23 b/s
  213. Count of elements : 722
  214. Stream size : 20.3 KiB (0%)
  215. Language : Malay
  216. Default : No
  217. Forced : No

  218. Text #15
  219. ID : 17
  220. Format : UTF-8
  221. Codec ID : S_TEXT/UTF8
  222. Codec ID/Info : UTF-8 Plain Text
  223. Duration : 1 h 59 min
  224. Bit rate : 21 b/s
  225. Count of elements : 728
  226. Stream size : 18.7 KiB (0%)
  227. Language : Dutch
  228. Default : No
  229. Forced : No

  230. Text #16
  231. ID : 18
  232. Format : UTF-8
  233. Codec ID : S_TEXT/UTF8
  234. Codec ID/Info : UTF-8 Plain Text
  235. Duration : 1 h 59 min
  236. Bit rate : 20 b/s
  237. Count of elements : 716
  238. Stream size : 17.8 KiB (0%)
  239. Language : Norwegian Bokmal
  240. Default : No
  241. Forced : No

  242. Text #17
  243. ID : 19
  244. Format : UTF-8
  245. Codec ID : S_TEXT/UTF8
  246. Codec ID/Info : UTF-8 Plain Text
  247. Duration : 1 h 59 min
  248. Bit rate : 20 b/s
  249. Count of elements : 728
  250. Stream size : 17.7 KiB (0%)
  251. Language : Polish
  252. Default : No
  253. Forced : No

  254. Text #18
  255. ID : 20
  256. Format : UTF-8
  257. Codec ID : S_TEXT/UTF8
  258. Codec ID/Info : UTF-8 Plain Text
  259. Duration : 1 h 59 min
  260. Bit rate : 21 b/s
  261. Count of elements : 730
  262. Stream size : 18.9 KiB (0%)
  263. Language : Portuguese
  264. Default : No
  265. Forced : No

  266. Text #19
  267. ID : 21
  268. Format : UTF-8
  269. Codec ID : S_TEXT/UTF8
  270. Codec ID/Info : UTF-8 Plain Text
  271. Duration : 1 h 59 min
  272. Bit rate : 35 b/s
  273. Count of elements : 731
  274. Stream size : 31.3 KiB (0%)
  275. Language : Russian
  276. Default : No
  277. Forced : No

  278. Text #20
  279. ID : 22
  280. Format : UTF-8
  281. Codec ID : S_TEXT/UTF8
  282. Codec ID/Info : UTF-8 Plain Text
  283. Duration : 1 h 59 min
  284. Bit rate : 21 b/s
  285. Count of elements : 731
  286. Stream size : 18.9 KiB (0%)
  287. Language : Spanish
  288. Default : No
  289. Forced : No

  290. Text #21
  291. ID : 23
  292. Format : UTF-8
  293. Codec ID : S_TEXT/UTF8
  294. Codec ID/Info : UTF-8 Plain Text
  295. Duration : 1 h 59 min
  296. Bit rate : 21 b/s
  297. Count of elements : 730
  298. Stream size : 19.2 KiB (0%)
  299. Language : Swedish
  300. Default : No
  301. Forced : No

  302. Text #22
  303. ID : 24
  304. Format : UTF-8
  305. Codec ID : S_TEXT/UTF8
  306. Codec ID/Info : UTF-8 Plain Text
  307. Duration : 1 h 59 min
  308. Bit rate : 57 b/s
  309. Count of elements : 731
  310. Stream size : 50.2 KiB (0%)
  311. Language : Tamil
  312. Default : No
  313. Forced : No
复制代码

我是你的女人4K.Im.Your.Woman.2020.2160p.AMZN.WEB-DL.x265.10bit.HDR10plus.DDP5.1-4K电影下载
我是你的女人4K.Im.Your.Woman.2020.2160p.AMZN.WEB-DL.x265.10bit.HDR10plus.DDP5.1【4K HDR 13.05 GB】
我是你的女人4K.Im.Your.Woman.2020.2160p.AMZN.WEB-DL.x265.10bit.HDR10plus.DDP5.1-.torrent (65.77 KB, 售价: 10 金币)
热门电影
关闭

站长通知上一条 /1 下一条

Copyright   ©2015-2016  4k群  Powered by©Discuz!  技术支持:4K群