足尖时代4K.Ballet.Now.2018.2160p.WEBRip电影下载

[复制链接]
朱古力小酥酥 发表于 2020-12-22 17:07 | 显示全部楼层 |阅读模式
电影频道
电影封面:
片  名: 足尖时代4K
国  家: 美国   
电影分类: 纪录片   
分 辨 率: 4K(3840x2160)    
画质标准: 其他 
电影声道: 5.1声道   
资源大小: 7.78 GB
剧情简介: Featuring New York City Ballet\'s Prima Ballerina Tiler Peck - the first ever woman to be asked to curate The Music Center\'s famed BalletNOW program - and a diverse cast of world-class dancers from around the globe, the film follows Tiler as she tries to execute her groundbreaking vision of mashing together the worlds of tap, hip-hop, ballet and even clown artistry. With less than a week to pull it all off, Tiler faces the mounting pressures of not only dancing in multiple pieces but also producing and directing this high profile event. The success of the performances rests squarely on her shoulders. Will she pull it off?
现代芭蕾舞 / 芭蕾正当时/足尖时代4K.Ballet.Now.2018.2160p.HULU.WEBRip.x265.10bit.SDR.DDP5.1-4k电影信息
  1. Video
  2. ID : 1
  3. Format : HEVC
  4. Format/Info : High Efficiency Video Coding
  5. Format profile : Main 10@L5.1@Main
  6. Codec ID : V_MPEGH/ISO/HEVC
  7. Duration : 1 h 13 min
  8. Bit rate : 14.9 Mb/s
  9. Width : 3 840 pixels
  10. Height : 2 160 pixels
  11. Display aspect ratio : 16:9
  12. Frame rate mode : Constant
  13. Frame rate : 23.976 (24000/1001) FPS
  14. Color space : YUV
  15. Chroma subsampling : 4:2:0
  16. Bit depth : 10 bits
  17. Bits/(Pixel*Frame) : 0.075
  18. Stream size : 7.65 GiB (98%)
  19. Default : Yes
  20. Forced : No

  21. Audio
  22. ID : 2
  23. Format : E-AC-3
  24. Format/Info : Enhanced AC-3
  25. Commercial name : Dolby Digital Plus
  26. Codec ID : A_EAC3
  27. Duration : 1 h 13 min
  28. Bit rate mode : Constant
  29. Bit rate : 256 kb/s
  30. Channel(s) : 6 channels
  31. Channel layout : L R C LFE Ls Rs
  32. Sampling rate : 48.0 kHz
  33. Frame rate : 31.250 FPS (1536 SPF)
  34. Compression mode : Lossy
  35. Stream size : 135 MiB (2%)
  36. Language : English
  37. Service kind : Complete Main
  38. Default : Yes
  39. Forced : No

  40. Text #1
  41. ID : 3
  42. Format : UTF-8
  43. Codec ID : S_TEXT/UTF8
  44. Codec ID/Info : UTF-8 Plain Text
  45. Duration : 1 h 13 min
  46. Bit rate : 69 b/s
  47. Count of elements : 1448
  48. Stream size : 37.6 KiB (0%)
  49. Language : English
  50. Default : No
  51. Forced : No

  52. Text #2
  53. ID : 4
  54. Format : UTF-8
  55. Codec ID : S_TEXT/UTF8
  56. Codec ID/Info : UTF-8 Plain Text
  57. Duration : 1 h 13 min
  58. Bit rate : 68 b/s
  59. Count of elements : 1493
  60. Stream size : 37.1 KiB (0%)
  61. Language : Spanish
  62. Default : No
  63. Forced : No
复制代码

现代芭蕾舞 / 芭蕾正当时/足尖时代4K.Ballet.Now.2018.2160p.HULU.WEBRip.x265.10bit.SDR.DDP5.1-4K电影信息
足尖时代4K.Ballet.Now.2018.2160p.HULU.WEBRip.x265.10bit.SDR.DDP5.1【4K SDR 7.78GB】
足尖时代4K.Ballet.Now.2018.2160p.HULU.WEBRip.x265.10bit.SDR.DDP5.1.torrent (39.43 KB, 售价: 10 金币)
热门电影
关闭

站长通知上一条 /1 下一条

Copyright   ©2015-2016  4k群  Powered by©Discuz!  技术支持:4K群