安全后卫4K.Safety.2020.2160p电影下载

[复制链接]
朱古力小酥酥 发表于 2020-12-28 21:52 | 显示全部楼层 |阅读模式
电影频道
电影封面:
片  名: 安全后卫4K
国  家: 美国   
电影分类: 剧情   
分 辨 率: 4K(3840x2160)    
画质标准: HDR    
电影声道: 5.1声道   
资源大小: 14.46 GB
剧情简介: Safety, an Original Film, premieres tomorrow on DisneyPlus. Inspired by the story of former Clemson University football safety Ray McELrathBey, the film follows a young man facing a series of challenging circumstances, whose dedication helps him triumph over adversities.
安全卫/安全后卫4K.Safety.2020.2160p.DSNP.WEBRip.x265.10bit.HDR.DDP5.1.Atmos-4k电影信息
  1. Video
  2. ID : 1
  3. Format : HEVC
  4. Format/Info : High Efficiency Video Coding
  5. Format profile : Main 10@L5@High
  6. HDR format : SMPTE ST 2086, HDR10 compatible
  7. Codec ID : V_MPEGH/ISO/HEVC
  8. Duration : 1 h 59 min
  9. Bit rate : 16.5 Mb/s
  10. Width : 3 840 pixels
  11. Height : 2 160 pixels
  12. Display aspect ratio : 16:9
  13. Frame rate mode : Constant
  14. Frame rate : 23.976 (24000/1001) FPS
  15. Color space : YUV
  16. Chroma subsampling : 4:2:0
  17. Bit depth : 10 bits
  18. Bits/(Pixel*Frame) : 0.083
  19. Stream size : 13.8 GiB (96%)
  20. Default : Yes
  21. Forced : No
  22. Color range : Limited
  23. Color primaries : BT.2020
  24. Transfer characteristics : PQ
  25. Matrix coefficients : BT.2020 non-constant
  26. Mastering display color primaries : BT.2020
  27. Mastering display luminance : min: 0.0000 cd/m2, max: 1000 cd/m2

  28. Audio
  29. ID : 2
  30. Format : E-AC-3 JOC
  31. Format/Info : Enhanced AC-3 with Joint Object Coding
  32. Commercial name : Dolby Digital Plus with Dolby Atmos
  33. Codec ID : A_EAC3
  34. Duration : 1 h 59 min
  35. Bit rate mode : Constant
  36. Bit rate : 768 kb/s
  37. Channel(s) : 6 channels
  38. Channel layout : L R C LFE Ls Rs
  39. Sampling rate : 48.0 kHz
  40. Frame rate : 31.250 FPS (1536 SPF)
  41. Compression mode : Lossy
  42. Stream size : 658 MiB (4%)
  43. Language : English
  44. Service kind : Complete Main
  45. Default : Yes
  46. Forced : No
  47. Complexity index : 16
  48. Number of dynamic objects : 15
  49. Bed channel count : 1 channel
  50. Bed channel configuration : LFE

  51. Text #1
  52. ID : 3
  53. Format : UTF-8
  54. Codec ID : S_TEXT/UTF8
  55. Codec ID/Info : UTF-8 Plain Text
  56. Duration : 1 h 58 min
  57. Bit rate : 54 b/s
  58. Count of elements : 1176
  59. Stream size : 47.3 KiB (0%)
  60. Language : Danish
  61. Default : No
  62. Forced : No

  63. Text #2
  64. ID : 4
  65. Format : UTF-8
  66. Codec ID : S_TEXT/UTF8
  67. Codec ID/Info : UTF-8 Plain Text
  68. Duration : 1 h 58 min
  69. Bit rate : 57 b/s
  70. Count of elements : 1783
  71. Stream size : 50.0 KiB (0%)
  72. Language : German
  73. Default : No
  74. Forced : No

  75. Text #3
  76. ID : 5
  77. Format : UTF-8
  78. Codec ID : S_TEXT/UTF8
  79. Codec ID/Info : UTF-8 Plain Text
  80. Duration : 1 h 58 min
  81. Bit rate : 74 b/s
  82. Count of elements : 1988
  83. Stream size : 65.0 KiB (0%)
  84. Title : (SDH)
  85. Language : English
  86. Default : No
  87. Forced : No

  88. Text #4
  89. ID : 6
  90. Format : UTF-8
  91. Codec ID : S_TEXT/UTF8
  92. Codec ID/Info : UTF-8 Plain Text
  93. Duration : 1 h 58 min
  94. Bit rate : 54 b/s
  95. Count of elements : 1785
  96. Stream size : 47.2 KiB (0%)
  97. Language : Finnish
  98. Default : No
  99. Forced : No

  100. Text #5
  101. ID : 7
  102. Format : UTF-8
  103. Codec ID : S_TEXT/UTF8
  104. Codec ID/Info : UTF-8 Plain Text
  105. Duration : 1 h 58 min
  106. Bit rate : 54 b/s
  107. Count of elements : 1640
  108. Stream size : 47.2 KiB (0%)
  109. Language : French
  110. Default : No
  111. Forced : No

  112. Text #6
  113. ID : 8
  114. Format : UTF-8
  115. Codec ID : S_TEXT/UTF8
  116. Codec ID/Info : UTF-8 Plain Text
  117. Duration : 1 h 58 min
  118. Bit rate : 58 b/s
  119. Count of elements : 1791
  120. Stream size : 50.5 KiB (0%)
  121. Language : Italian
  122. Default : No
  123. Forced : No

  124. Text #7
  125. ID : 9
  126. Format : UTF-8
  127. Codec ID : S_TEXT/UTF8
  128. Codec ID/Info : UTF-8 Plain Text
  129. Duration : 1 h 58 min
  130. Bit rate : 57 b/s
  131. Count of elements : 1350
  132. Stream size : 50.2 KiB (0%)
  133. Language : Dutch
  134. Default : No
  135. Forced : No

  136. Text #8
  137. ID : 10
  138. Format : UTF-8
  139. Codec ID : S_TEXT/UTF8
  140. Codec ID/Info : UTF-8 Plain Text
  141. Duration : 1 h 58 min
  142. Bit rate : 60 b/s
  143. Count of elements : 1786
  144. Stream size : 52.8 KiB (0%)
  145. Language : Norwegian
  146. Default : No
  147. Forced : No

  148. Text #9
  149. ID : 11
  150. Format : UTF-8
  151. Codec ID : S_TEXT/UTF8
  152. Codec ID/Info : UTF-8 Plain Text
  153. Duration : 1 h 58 min
  154. Bit rate : 48 b/s
  155. Count of elements : 1641
  156. Stream size : 42.6 KiB (0%)
  157. Language : Polish
  158. Default : No
  159. Forced : No

  160. Text #10
  161. ID : 12
  162. Format : UTF-8
  163. Codec ID : S_TEXT/UTF8
  164. Codec ID/Info : UTF-8 Plain Text
  165. Duration : 1 h 58 min
  166. Bit rate : 57 b/s
  167. Count of elements : 1772
  168. Stream size : 49.8 KiB (0%)
  169. Language : Portuguese
  170. Default : No
  171. Forced : No

  172. Text #11
  173. ID : 13
  174. Format : UTF-8
  175. Codec ID : S_TEXT/UTF8
  176. Codec ID/Info : UTF-8 Plain Text
  177. Duration : 1 h 58 min
  178. Bit rate : 60 b/s
  179. Count of elements : 1793
  180. Stream size : 52.9 KiB (0%)
  181. Language : Spanish
  182. Default : No
  183. Forced : No

  184. Text #12
  185. ID : 14
  186. Format : UTF-8
  187. Codec ID : S_TEXT/UTF8
  188. Codec ID/Info : UTF-8 Plain Text
  189. Duration : 1 h 58 min
  190. Bit rate : 53 b/s
  191. Count of elements : 1780
  192. Stream size : 46.9 KiB (0%)
  193. Language : Swedish
  194. Default : No
  195. Forced : No
复制代码

安全卫/安全后卫4K.Safety.2020.2160p.DSNP.WEBRip.x265.10bit.HDR.DDP5.1.Atmos-4K电影下载
安全后卫4K.Safety.2020.2160p.DSNP.WEBRip.x265.10bit.HDR.DDP5.1.Atmos【4K HDR 14.46 GB】

安全后卫4K.Safety.2020.2160p.DSNP.WEBRip.x265.10bit.HDR.DDP5.1.Atmos-ROC.torrent

72.82 KB,

售价: 10 金币  [记录]

热门电影
关闭

站长通知上一条 /1 下一条

Copyright   ©2015-2016  4k群  Powered by©Discuz!  技术支持:4K群