魔法教母4k Godmothered.2020.2160p.电影下载

[复制链接]
朱古力小酥酥 发表于 2021-1-6 17:55 | 显示全部楼层 |阅读模式
电影频道
电影封面:
片  名: 魔法教母4k
国  家: 美国   
电影分类: 喜剧   奇幻   
分 辨 率: 4K(3840x2160)    
画质标准: HDR    
电影声道: 5.1声道   
资源大小: 13.26 GB
剧情简介: 一位年轻且缺乏经验的仙女教母埃莉诺(Jillian Bell饰)听说仙女教母这个职业面临消失的危险,她想用行动来证明人们仍然需要仙女教母,便找来了一封来自一个不开心的十岁小女孩的信,想要帮助她。但当她找到这位“小女孩”麦肯齐(Isla Fisher饰),才发现她现在已经是一位40岁的单身母亲了,生活的遭遇让她不再相信“幸福的生活”这回事。埃莉诺决定无论麦肯齐喜欢不喜欢,也要帮她找到幸福。
仙女教母/魔法教母4k Godmothered.2020.2160p.DSNP.WEBRip.x265.10bit.HDR.DDP5.1.Atmos.电影信息
  1. Video
  2. ID : 1
  3. Format : HEVC
  4. Format/Info : High Efficiency Video Coding
  5. Format profile : Main 10@L5@High
  6. HDR format : SMPTE ST 2086, HDR10 compatible
  7. Codec ID : V_MPEGH/ISO/HEVC
  8. Duration : 1 h 49 min
  9. Bit rate : 16.5 Mb/s
  10. Width : 3 840 pixels
  11. Height : 2 160 pixels
  12. Display aspect ratio : 16:9
  13. Frame rate mode : Constant
  14. Frame rate : 23.976 (24000/1001) FPS
  15. Color space : YUV
  16. Chroma subsampling : 4:2:0
  17. Bit depth : 10 bits
  18. Bits/(Pixel*Frame) : 0.083
  19. Stream size : 12.7 GiB (96%)
  20. Default : Yes
  21. Forced : No
  22. Color range : Limited
  23. Color primaries : BT.2020
  24. Transfer characteristics : PQ
  25. Matrix coefficients : BT.2020 non-constant
  26. Mastering display color primaries : BT.2020
  27. Mastering display luminance : min: 0.0000 cd/m2, max: 1000 cd/m2

  28. Audio
  29. ID : 2
  30. Format : E-AC-3 JOC
  31. Format/Info : Enhanced AC-3 with Joint Object Coding
  32. Commercial name : Dolby Digital Plus with Dolby Atmos
  33. Codec ID : A_EAC3
  34. Duration : 1 h 49 min
  35. Bit rate mode : Constant
  36. Bit rate : 768 kb/s
  37. Channel(s) : 6 channels
  38. Channel layout : L R C LFE Ls Rs
  39. Sampling rate : 48.0 kHz
  40. Frame rate : 31.250 FPS (1536 SPF)
  41. Compression mode : Lossy
  42. Stream size : 603 MiB (4%)
  43. Language : English
  44. Service kind : Complete Main
  45. Default : Yes
  46. Forced : No
  47. Complexity index : 16
  48. Number of dynamic objects : 15
  49. Bed channel count : 1 channel
  50. Bed channel configuration : LFE

  51. Text #1
  52. ID : 3
  53. Format : UTF-8
  54. Codec ID : S_TEXT/UTF8
  55. Codec ID/Info : UTF-8 Plain Text
  56. Duration : 1 h 48 min
  57. Bit rate : 61 b/s
  58. Count of elements : 1259
  59. Stream size : 48.9 KiB (0%)
  60. Language : Danish
  61. Default : No
  62. Forced : No

  63. Text #2
  64. ID : 4
  65. Format : UTF-8
  66. Codec ID : S_TEXT/UTF8
  67. Codec ID/Info : UTF-8 Plain Text
  68. Duration : 1 h 48 min
  69. Bit rate : 64 b/s
  70. Count of elements : 1455
  71. Stream size : 51.5 KiB (0%)
  72. Language : German
  73. Default : No
  74. Forced : No

  75. Text #3
  76. ID : 5
  77. Format : UTF-8
  78. Codec ID : S_TEXT/UTF8
  79. Codec ID/Info : UTF-8 Plain Text
  80. Duration : 1 h 41 min
  81. Bit rate : 83 b/s
  82. Count of elements : 1795
  83. Stream size : 62.4 KiB (0%)
  84. Title : (SDH)
  85. Language : English
  86. Default : No
  87. Forced : No

  88. Text #4
  89. ID : 6
  90. Format : UTF-8
  91. Codec ID : S_TEXT/UTF8
  92. Codec ID/Info : UTF-8 Plain Text
  93. Duration : 1 h 48 min
  94. Bit rate : 60 b/s
  95. Count of elements : 1565
  96. Stream size : 48.4 KiB (0%)
  97. Language : Finnish
  98. Default : No
  99. Forced : No

  100. Text #5
  101. ID : 7
  102. Format : UTF-8
  103. Codec ID : S_TEXT/UTF8
  104. Codec ID/Info : UTF-8 Plain Text
  105. Duration : 1 h 48 min
  106. Bit rate : 58 b/s
  107. Count of elements : 1443
  108. Stream size : 46.5 KiB (0%)
  109. Language : French
  110. Default : No
  111. Forced : No

  112. Text #6
  113. ID : 8
  114. Format : UTF-8
  115. Codec ID : S_TEXT/UTF8
  116. Codec ID/Info : UTF-8 Plain Text
  117. Duration : 1 h 48 min
  118. Bit rate : 61 b/s
  119. Count of elements : 1549
  120. Stream size : 48.9 KiB (0%)
  121. Language : Italian
  122. Default : No
  123. Forced : No

  124. Text #7
  125. ID : 9
  126. Format : UTF-8
  127. Codec ID : S_TEXT/UTF8
  128. Codec ID/Info : UTF-8 Plain Text
  129. Duration : 1 h 48 min
  130. Bit rate : 61 b/s
  131. Count of elements : 1264
  132. Stream size : 49.2 KiB (0%)
  133. Language : Dutch
  134. Default : No
  135. Forced : No

  136. Text #8
  137. ID : 10
  138. Format : UTF-8
  139. Codec ID : S_TEXT/UTF8
  140. Codec ID/Info : UTF-8 Plain Text
  141. Duration : 1 h 48 min
  142. Bit rate : 61 b/s
  143. Count of elements : 1568
  144. Stream size : 49.3 KiB (0%)
  145. Language : Norwegian
  146. Default : No
  147. Forced : No

  148. Text #9
  149. ID : 11
  150. Format : UTF-8
  151. Codec ID : S_TEXT/UTF8
  152. Codec ID/Info : UTF-8 Plain Text
  153. Duration : 1 h 48 min
  154. Bit rate : 66 b/s
  155. Count of elements : 1560
  156. Stream size : 52.7 KiB (0%)
  157. Language : Polish
  158. Default : No
  159. Forced : No

  160. Text #10
  161. ID : 12
  162. Format : UTF-8
  163. Codec ID : S_TEXT/UTF8
  164. Codec ID/Info : UTF-8 Plain Text
  165. Duration : 1 h 48 min
  166. Bit rate : 65 b/s
  167. Count of elements : 1568
  168. Stream size : 52.0 KiB (0%)
  169. Language : Portuguese
  170. Default : No
  171. Forced : No

  172. Text #11
  173. ID : 13
  174. Format : UTF-8
  175. Codec ID : S_TEXT/UTF8
  176. Codec ID/Info : UTF-8 Plain Text
  177. Duration : 1 h 48 min
  178. Bit rate : 64 b/s
  179. Count of elements : 1571
  180. Stream size : 51.2 KiB (0%)
  181. Language : Spanish
  182. Default : No
  183. Forced : No

  184. Text #12
  185. ID : 14
  186. Format : UTF-8
  187. Codec ID : S_TEXT/UTF8
  188. Codec ID/Info : UTF-8 Plain Text
  189. Duration : 1 h 48 min
  190. Bit rate : 66 b/s
  191. Count of elements : 1563
  192. Stream size : 52.8 KiB (0%)
  193. Language : Swedish
  194. Default : No
  195. Forced : No
复制代码

仙女教母/魔法教母4k Godmothered.2020.2160p.DSNP.WEBRip.x265.10bit.HDR.DDP5.1.Atmos.电影下载

魔法教母4k Godmothered.2020.2160p.DSNP.WEBRip.x265.10bit.HDR.DDP5.1.Atmos【13.26 GB】
魔法教母4k Godmothered.2020.2160p.DSNP.WEBRip.x265.10bit.HDR.DDP5.1.Atmos.torrent (66.85 KB, 售价: 10 金币)
热门电影
关闭

站长通知上一条 /1 下一条

Copyright   ©2015-2016  4k群  Powered by©Discuz!  技术支持:4K群