圣母高清电影下载

[复制链接]
朱古力小酥酥 发表于 2021-11-30 11:51 | 显示全部楼层 |阅读模式
圣母.jpg
导演: 保罗·范霍文
编剧: 保罗·范霍文 / 大卫·伯克 / Judith C. Brown
主演: 维尔日妮·埃菲拉 / 夏洛特·兰普林 / 达芙妮·帕塔基亚 / 朗贝尔·维尔森 / 奥利维尔·雷堡汀 / 埃尔韦·皮埃尔 / 克洛蒂尔·蔻洛 / 安托万·利兰达斯 / 吉莱纳·隆代 / Alexia Chardard / 路易丝·舍维约特 / 塞特雅·杜索戈 / Elena Plonka / Jonathan Couzinié / Quentin D'Hainaut
类型: 剧情 / 同性 / 历史
制片国家/地区: 法国 / 荷兰
语言: 法语
上映日期: 2021-07-09(法国/戛纳电影节) / 2021-12-03(美国/美国网络)
片长: 131分钟
又名: 圣欲(港/台) / 圣母玛利亚 / 贝内黛塔 / Sainte Vierge / Blessed Virgin

圣母的剧情简介 · · · · · ·
  故事改编自真实事件,发生在17世纪位于意大利的一家修道院内。本尼蒂塔(维吉妮·艾菲拉 Virginie Efira 饰)出生在一个富裕而又虔诚的基督教家庭之中,在很小的时候,她就被父母送进了修道院深造,将她作为一名修女培养。在那个年代,进修道院对于一个女孩来说,是何等幸运的事情。
  一晃眼多年过去,贝尼蒂塔已经出落成为了大姑娘了,并且成为了修道院院长福利西塔(夏洛特·兰普林 Charlotte Rampling 饰)的得力助手。某日,一个衣衫褴褛的女孩冲进修道院求助,她的名字叫巴托洛梅阿(达芙妮·帕塔基亚 Daphne Patakia 饰),在本尼蒂塔的帮助之下,这个可怜的,遭受了父亲和哥哥虐待的女孩进入了修道院,成为了见习修女。可是,巴托洛梅阿就像一匹野马一样的难以驯服和管教,她的出现很快就让本尼蒂塔感到棘手和难以招架。

圣母 Benedetta.2021.FRENCH.1080p.BluRay.REMUX.AVC.DTS-HD.MA.5.1电影信息
  1. Video
  2. ID : 1
  3. ID in the original source medium : 4113 (0x1011)
  4. Format : AVC
  5. Format/Info : Advanced Video Codec
  6. Format profile : [email protected]
  7. Format settings : CABAC / 3 Ref Frames
  8. Format settings, CABAC : Yes
  9. Format settings, Reference frames : 3 frames
  10. Codec ID : V_MPEG4/ISO/AVC
  11. Duration : 2 h 11 min
  12. Bit rate mode : Variable
  13. Bit rate : 32.0 Mb/s
  14. Maximum bit rate : 36.0 Mb/s
  15. Width : 1 920 pixels
  16. Height : 1 080 pixels
  17. Display aspect ratio : 16:9
  18. Frame rate mode : Constant
  19. Frame rate : 23.976 (24000/1001) FPS
  20. Color space : YUV
  21. Chroma subsampling : 4:2:0
  22. Bit depth : 8 bits
  23. Scan type : Progressive
  24. Bits/(Pixel*Frame) : 0.644
  25. Stream size : 29.3 GiB (84%)
  26. Writing library : x264 core 146 r2538 121396c
  27. Encoding settings : cabac=1 / ref=4 / deblock=1:-1:-1 / analyse=0x3:0x133 / me=umh / subme=10 / psy=1 / psy_rd=1.00:0.15 / mixed_ref=1 / me_range=24 / chroma_me=1 / trellis=2 / 8x8dct=1 / cqm=0 / deadzone=21,11 / fast_pskip=1 / chroma_qp_offset=-3 / threads=48 / lookahead_threads=4 / sliced_threads=0 / slices=4 / nr=0 / decimate=1 / interlaced=0 / bluray_compat=1 / constrained_intra=0 / bframes=3 / b_pyramid=1 / b_adapt=2 / b_bias=0 / direct=3 / weightb=1 / open_gop=1 / weightp=1 / keyint=24 / keyint_min=1 / scenecut=40 / intra_refresh=0 / rc_lookahead=24 / rc=2pass / mbtree=1 / bitrate=32000 / ratetol=1.0 / qcomp=0.60 / qpmin=0 / qpmax=69 / qpstep=4 / cplxblur=20.0 / qblur=0.5 / vbv_maxrate=36000 / vbv_bufsize=30000 / nal_hrd=vbr / filler=0 / ip_ratio=1.40 / aq=1:1.00
  28. Language : English
  29. Default : No
  30. Forced : No
  31. Color range : Limited
  32. Color primaries : BT.709
  33. Transfer characteristics : BT.709
  34. Matrix coefficients : BT.709
  35. Original source medium : Blu-ray

  36. Audio #1
  37. ID : 2
  38. ID in the original source medium : 4352 (0x1100)
  39. Format : DTS XLL
  40. Format/Info : Digital Theater Systems
  41. Commercial name : DTS-HD Master Audio
  42. Codec ID : A_DTS
  43. Duration : 2 h 11 min
  44. Bit rate mode : Variable
  45. Bit rate : 3 642 kb/s
  46. Channel(s) : 6 channels
  47. Channel layout : C L R Ls Rs LFE
  48. Sampling rate : 48.0 kHz
  49. Frame rate : 93.750 FPS (512 SPF)
  50. Bit depth : 24 bits
  51. Compression mode : Lossless
  52. Stream size : 3.34 GiB (10%)
  53. Title : DTS-HD MA 5.1
  54. Language : French
  55. Default : Yes
  56. Forced : No
  57. Original source medium : Blu-ray

  58. Audio #2
  59. ID : 3
  60. ID in the original source medium : 4353 (0x1101)
  61. Format : DTS XLL
  62. Format/Info : Digital Theater Systems
  63. Commercial name : DTS-HD Master Audio
  64. Codec ID : A_DTS
  65. Duration : 2 h 11 min
  66. Bit rate mode : Variable
  67. Bit rate : 1 660 kb/s
  68. Channel(s) : 2 channels
  69. Sampling rate : 48.0 kHz
  70. Frame rate : 93.750 FPS (512 SPF)
  71. Bit depth : 24 bits
  72. Compression mode : Lossless
  73. Stream size : 1.52 GiB (4%)
  74. Title : DTS-HD MA 2.0
  75. Language : French
  76. Default : No
  77. Forced : No
  78. Original source medium : Blu-ray

  79. Audio #3
  80. ID : 4
  81. ID in the original source medium : 4354 (0x1102)
  82. Format : DTS
  83. Format/Info : Digital Theater Systems
  84. Codec ID : A_DTS
  85. Duration : 2 h 11 min
  86. Bit rate mode : Constant
  87. Bit rate : 768 kb/s
  88. Channel(s) : 2 channels
  89. Channel layout : Lt Rt
  90. Sampling rate : 48.0 kHz
  91. Frame rate : 93.750 FPS (512 SPF)
  92. Bit depth : 16 bits
  93. Compression mode : Lossy
  94. Stream size : 721 MiB (2%)
  95. Title : DTS 2.0
  96. Language : French
  97. Default : No
  98. Forced : No
  99. Original source medium : Blu-ray

  100. Text #1
  101. ID : 5
  102. Format : UTF-8
  103. Codec ID : S_TEXT/UTF8
  104. Codec ID/Info : UTF-8 Plain Text
  105. Duration : 2 h 6 min
  106. Bit rate : 37 b/s
  107. Count of elements : 1227
  108. Stream size : 34.8 KiB (0%)
  109. Language : English
  110. Default : Yes
  111. Forced : No

  112. Text #2
  113. ID : 6
  114. ID in the original source medium : 4608 (0x1200)
  115. Format : PGS
  116. Muxing mode : zlib
  117. Codec ID : S_HDMV/PGS
  118. Codec ID/Info : Picture based subtitle format used on BDs/HD-DVDs
  119. Duration : 2 h 11 min
  120. Bit rate : 26.7 kb/s
  121. Count of elements : 4268
  122. Stream size : 25.1 MiB (0%)
  123. Language : French
  124. Default : No
  125. Forced : No
  126. Original source medium : Blu-ray

  127. Menu
  128. 00:00:00.000 : en:Chapter 01
  129. 00:11:27.228 : en:Chapter 02
  130. 00:24:16.121 : en:Chapter 03
  131. 00:33:50.486 : en:Chapter 04
  132. 00:44:56.235 : en:Chapter 05
  133. 00:56:07.822 : en:Chapter 06
  134. 01:07:42.600 : en:Chapter 07
  135. 01:22:42.749 : en:Chapter 08
  136. 01:32:30.127 : en:Chapter 09
  137. 01:43:44.968 : en:Chapter 10
  138. 01:54:00.375 : en:Chapter 11
  139. 02:06:00.803 : en:Chapter 12
复制代码

圣母 Benedetta.2021.FRENCH.1080p.BluRay.REMUX.AVC.DTS-HD.MA.5.1电影下载

圣母 Benedetta.2021.FRENCH.1080p.BluRay.REMUX.AVC.DTS-HD.MA.5.1【34.83 GB】
圣母Benedetta.2021.FRENCH.1080p.BluRay.REMUX.AVC.DTS-HD.MA.5.1-FGT.torrent (44.2 KB, 下载次数: 6, 售价: 10 金币)
热门电影
关闭

站长通知上一条 /1 下一条

Copyright   ©2015-2016  4k群  Powered by©Discuz!  技术支持:4K群