倒数时刻电影下载

[复制链接]
朱古力小酥酥 发表于 2021-11-30 12:00 | 显示全部楼层 |阅读模式
倒数时刻.jpg
导演: 林-曼努尔·米兰达
编剧: 史蒂文·莱文森 / 乔纳森·拉森
主演: 安德鲁·加菲尔德 / 亚历山德拉·希普 / 罗宾·德·齐泽斯 / 凡妮莎·哈金斯 / 约书亚·亨利 / 乔纳森·马克·谢尔曼 / MJ·罗德里格斯 / 朱迪斯·赖特 / 布莱德利·惠特福德 / 林-曼努尔·米兰达 / 芮妮·戈兹贝里 / 菲莉帕·苏 / 克里斯·杰克逊 / 劳拉·本纳蒂 / 达尼埃尔·费兰 / 乌特卡什·安邦德卡尔 / Robyn Goodman / 朱迪·库恩 / 丹尼·伯斯坦 / 理查德·坎德 / Tariq Trotter / 乔安娜·阿德勒 / 克里斯·沙利文 / 罗杰·巴特 / 乔尔·格雷 / 诺亚·罗宾斯 / Gizel Jimenez / Ben Ross / Micaela Diamond
类型: 剧情 / 歌舞 / 传记
制片国家/地区: 美国
语言: 英语
上映日期: 2021-11-10(美国电影学会电影节) / 2021-11-12(美国) / 2021-11-19(美国网络)
片长: 122分钟
又名: 滴答,滴答……轰隆隆 / 梦想期限(港)

倒数时刻的剧情简介 · · · · · ·
  设定在1990年,主角为加菲饰演的Jon,一个年轻、雄心勃勃的音乐剧作曲家。他在纽约一边当侍者,一边写一部叫《Superbia》的音乐剧,希望能平步青云,开启事业。但他从女友Susan那里感受到了压力,对方已经厌倦了任男友的职业前途牵制自己的人生;同时,Jon的室友Michael也放弃了创作梦想,做了一份高收入的广告业工作。快30岁的Jon非常焦虑:自己的梦想是否值得继续拼搏?

倒数时刻Tick.Tick.BOOM.2021.1080p.NF.WEB-DL.x265.10bit.HDR.DDP5.1.Atmos电影信息
  1. Video
  2. ID : 1
  3. Format : HEVC
  4. Format/Info : High Efficiency Video Coding
  5. Format profile : Main [email protected]@Main
  6. HDR format : SMPTE ST 2086, HDR10 compatible
  7. Codec ID : V_MPEGH/ISO/HEVC
  8. Duration : 1 h 59 min
  9. Bit rate : 5 565 kb/s
  10. Width : 1 920 pixels
  11. Height : 1 080 pixels
  12. Display aspect ratio : 16:9
  13. Frame rate mode : Constant
  14. Frame rate : 24.000 FPS
  15. Color space : YUV
  16. Chroma subsampling : 4:2:0 (Type 2)
  17. Bit depth : 10 bits
  18. Bits/(Pixel*Frame) : 0.112
  19. Stream size : 4.66 GiB (88%)
  20. Default : Yes
  21. Forced : No
  22. Color range : Limited
  23. Color primaries : BT.2020
  24. Transfer characteristics : PQ
  25. Matrix coefficients : BT.2020 non-constant
  26. Mastering display color primaries : Display P3
  27. Mastering display luminance : min: 0.0001 cd/m2, max: 1000 cd/m2
  28. Maximum Content Light Level : 756 cd/m2
  29. Maximum Frame-Average Light Level : 122 cd/m2

  30. Audio
  31. ID : 2
  32. Format : E-AC-3 JOC
  33. Format/Info : Enhanced AC-3 with Joint Object Coding
  34. Commercial name : Dolby Digital Plus with Dolby Atmos
  35. Codec ID : A_EAC3
  36. Duration : 2 h 1 min
  37. Bit rate mode : Constant
  38. Bit rate : 768 kb/s
  39. Channel(s) : 6 channels
  40. Channel layout : L R C LFE Ls Rs
  41. Sampling rate : 48.0 kHz
  42. Frame rate : 31.250 FPS (1536 SPF)
  43. Compression mode : Lossy
  44. Stream size : 668 MiB (12%)
  45. Title : English
  46. Language : English
  47. Service kind : Complete Main
  48. Default : No
  49. Forced : No
  50. Complexity index : 16
  51. Number of dynamic objects : 15
  52. Bed channel count : 1 channel
  53. Bed channel configuration : LFE

  54. Text #1
  55. ID : 3
  56. Format : UTF-8
  57. Codec ID : S_TEXT/UTF8
  58. Codec ID/Info : UTF-8 Plain Text
  59. Duration : 1 h 58 min
  60. Bit rate : 114 b/s
  61. Count of elements : 1620
  62. Stream size : 99.5 KiB (0%)
  63. Title : Arabic
  64. Language : Arabic
  65. Default : No
  66. Forced : No

  67. Text #2
  68. ID : 4
  69. Format : UTF-8
  70. Codec ID : S_TEXT/UTF8
  71. Codec ID/Info : UTF-8 Plain Text
  72. Duration : 1 h 58 min
  73. Bit rate : 58 b/s
  74. Count of elements : 1610
  75. Stream size : 51.3 KiB (0%)
  76. Title : Chinese Traditional
  77. Language : Chinese
  78. Default : No
  79. Forced : No

  80. Text #3
  81. ID : 5
  82. Format : UTF-8
  83. Codec ID : S_TEXT/UTF8
  84. Codec ID/Info : UTF-8 Plain Text
  85. Duration : 1 h 58 min
  86. Bit rate : 62 b/s
  87. Count of elements : 1604
  88. Stream size : 54.1 KiB (0%)
  89. Title : Chinese Simplified
  90. Language : Chinese
  91. Default : No
  92. Forced : No

  93. Text #4
  94. ID : 6
  95. Format : UTF-8
  96. Codec ID : S_TEXT/UTF8
  97. Codec ID/Info : UTF-8 Plain Text
  98. Duration : 1 h 58 min
  99. Bit rate : 61 b/s
  100. Count of elements : 1592
  101. Stream size : 53.3 KiB (0%)
  102. Title : Czech
  103. Language : Czech
  104. Default : No
  105. Forced : No
复制代码

倒数时刻Tick.Tick.BOOM.2021.1080p.NF.WEB-DL.x265.10bit.HDR.DDP5.1.Atmos电影下载

倒数时刻Tick.Tick.BOOM.2021.1080p.NF.WEB-DL.x265.10bit.HDR.DDP5.1.Atmos自带中文【5.32 GB】
倒数时刻Tick.Tick.BOOM.2021.1080p.NF.WEB-DL.x265.10bit.HDR.DDP5.1.Atmos-CM.torrent (13.95 KB, 下载次数: 0, 售价: 10 金币)

倒数时刻Tick.Tick.BOOM.2021.1080p.NF.WEBRip.x265.10bit.SDR.DDP5.1.Atmos自带中文【5.29 GB】
倒数时刻Tick.Tick.BOOM.2021.1080p.NF.WEBRip.x265.10bit.SDR.DDP5.1.Atmos-CM.torrent (13.89 KB, 下载次数: 0, 售价: 10 金币)

倒数时刻Tick.Tick.BOOM.2021.1080p.NF.WEBRip.DDP5.1.Atmos.x264自带中文【6.74 GB】
倒数时刻Tick.Tick.BOOM.2021.1080p.NF.WEBRip.DDP5.1.Atmos.x264-CM.torrent (17.48 KB, 下载次数: 0, 售价: 10 金币)

倒数时刻Tick.Tick.Boom.2021.1080p.WEB.H264自带中文【6.74 GB】
倒数时刻Tick.Tick.Boom.2021.1080p.WEB.H264-PECULATE.torrent (17.57 KB, 下载次数: 1, 售价: 10 金币)
热门电影
关闭

站长通知上一条 /1 下一条

Copyright   ©2015-2016  4k群  Powered by©Discuz!  技术支持:4K群