最后的决4k.1080p蓝光原盘电影下载

[复制链接]
朱古力小酥酥 发表于 2021-12-7 16:56 | 显示全部楼层 |阅读模式
电影频道
电影封面:
片  名: 最后的决
国  家: 美国   
电影分类: 动作   惊悚   历史   
分 辨 率: 4K(3840x2160)    
画质标准: HDR    
电影声道: 5.1声道   
资源大小: 46.52 GB
剧情简介: 这场复仇围绕着达蒙、阿弗莱克饰演的一对最好的朋友展开。诺曼骑士Jean de Carrouges和乡绅Jacques Le Gris是最好的朋友。然而Jean战争归来后却指控Jacques强奸了他的妻子Margerite de Carrouges(科默饰)。没有人相信这个女子的遭遇,Jean向法国国王请愿,取消维护Jacques的伯爵Pierre d’Anencon的决定。而传递下来的国王决定是让这对好友决一死战。活着的人即为胜利者,这也将成为上帝的旨意。而如果Jean失败了,她的妻子将被焚烧,作为她“诬告”Jacques的惩罚。
最后的对决 / 终极决斗 / 最後絕鬥(港)/最后的决斗4K.The.Last.Duel.2021.2160p.WEB-DL.x265.10bit.HDR.DDP5.1.Atmos-4k电影信息
  1. Video
  2. ID : 1
  3. Format : HEVC
  4. Format/Info : High Efficiency Video Coding
  5. Format profile : Main [email protected]@High
  6. HDR format : SMPTE ST 2086, HDR10 compatible
  7. Codec ID : V_MPEGH/ISO/HEVC
  8. Duration : 2 h 32 min
  9. Bit rate : 14.4 Mb/s
  10. Width : 3 840 pixels
  11. Height : 1 608 pixels
  12. Display aspect ratio : 2.40:1
  13. Frame rate mode : Constant
  14. Frame rate : 23.976 FPS
  15. Color space : YUV
  16. Chroma subsampling : 4:2:0 (Type 2)
  17. Bit depth : 10 bits
  18. Bits/(Pixel*Frame) : 0.097
  19. Stream size : 15.4 GiB (95%)
  20. Default : Yes
  21. Forced : No
  22. Color range : Limited
  23. Color primaries : BT.2020
  24. Transfer characteristics : PQ
  25. Matrix coefficients : BT.2020 non-constant
  26. Mastering display color primaries : BT.2020
  27. Mastering display luminance : min: 0.0050 cd/m2, max: 1000 cd/m2
  28. Maximum Content Light Level : 1088 cd/m2
  29. Maximum Frame-Average Light Level : 131 cd/m2

  30. Audio
  31. ID : 2
  32. Format : E-AC-3 JOC
  33. Format/Info : Enhanced AC-3 with Joint Object Coding
  34. Commercial name : Dolby Digital Plus with Dolby Atmos
  35. Codec ID : A_EAC3
  36. Duration : 2 h 32 min
  37. Bit rate mode : Constant
  38. Bit rate : 768 kb/s
  39. Channel(s) : 6 channels
  40. Channel layout : L R C LFE Ls Rs
  41. Sampling rate : 48.0 kHz
  42. Frame rate : 31.250 FPS (1536 SPF)
  43. Compression mode : Lossy
  44. Stream size : 839 MiB (5%)
  45. Title : English
  46. Language : English
  47. Service kind : Complete Main
  48. Default : No
  49. Forced : No
  50. Complexity index : 16
  51. Number of dynamic objects : 15
  52. Bed channel count : 1 channel
  53. Bed channel configuration : LFE

  54. Text #1
  55. ID : 3
  56. Format : UTF-8
  57. Codec ID : S_TEXT/UTF8
  58. Codec ID/Info : UTF-8 Plain Text
  59. Duration : 23 s 232 ms
  60. Bit rate : 49 b/s
  61. Count of elements : 6
  62. Stream size : 143 Bytes (0%)
  63. Title : English [Forced]
  64. Language : English
  65. Default : No
  66. Forced : Yes

  67. Text #2
  68. ID : 4
  69. Format : UTF-8
  70. Codec ID : S_TEXT/UTF8
  71. Codec ID/Info : UTF-8 Plain Text
  72. Duration : 2 h 22 min
  73. Bit rate : 47 b/s
  74. Count of elements : 1684
  75. Stream size : 49.7 KiB (0%)
  76. Title : English [SDH]
  77. Language : English
  78. Default : No
  79. Forced : No

  80. Text #3
  81. ID : 5
  82. Format : UTF-8
  83. Codec ID : S_TEXT/UTF8
  84. Codec ID/Info : UTF-8 Plain Text
  85. Duration : 2 h 31 min
  86. Bit rate : 47 b/s
  87. Count of elements : 1708
  88. Stream size : 52.8 KiB (0%)
  89. Title : French Canadian
  90. Language : French
  91. Default : No
  92. Forced : No

  93. Text #4
  94. ID : 6
  95. Format : UTF-8
  96. Codec ID : S_TEXT/UTF8
  97. Codec ID/Info : UTF-8 Plain Text
  98. Duration : 2 h 22 min
  99. Bit rate : 47 b/s
  100. Count of elements : 1691
  101. Stream size : 49.2 KiB (0%)
  102. Title : Spanish
  103. Language : Spanish
  104. Default : No
  105. Forced : No
复制代码

最后的对决 / 终极决斗 / 最後絕鬥(港)/最后的决斗4K.The.Last.Duel.2021.2160p.WEB-DL.x265.10bit.HDR.DDP5.1.Atmos-4K电影下载

最后的决斗4K.The.Last.Duel.2021.2160p.WEB-DL.x265.10bit.HDR.DDP5.1.Atmos【16.17 GB】
最后的决斗4k.The.Last.Duel.2021.2160p.WEB-DL.x265.10bit.HDR.DDP5.1.Atmos-CM.torrent (20.87 KB, 下载次数: 1, 售价: 10 金币)

最后的决斗4K.The.Last.Duel.2021.2160p.WEB-DL.x265.10bit.SDR.DDP5.1.Atmos【13.51 GB】
最后的决斗4k.The.Last.Duel.2021.2160p.WEB-DL.x265.10bit.SDR.DDP5.1.Atmos-CM.torrent (17.53 KB, 下载次数: 0, 售价: 10 金币)

最后的决斗4K.The.Last.Duel.2021.1080p.BluRay.AVC.DTS-HD.MA.7.1【46.52 GB】
最后的决斗.The.Last.Duel.2021.1080p.BluRay.AVC.DTS-HD.MA.7.1-CYBER.torrent (133.31 KB, 下载次数: 4, 售价: 10 金币)

最后的决斗4K.The.Last.Duel.2021.1080p.BluRay.REMUX.AVC.DTS-HD.MA.7.1【38.11 GB】
最后的决斗.The.Last.Duel.2021.1080p.BluRay.REMUX.AVC.DTS-HD.MA.7.1-FGT.torrent (48.29 KB, 下载次数: 1, 售价: 10 金币)

评分

参与人数 1M值 +1 收起 理由
imhuawei + 1

查看全部评分

热门电影
关闭

站长通知上一条 /1 下一条

Copyright   ©2015-2016  4k群  Powered by©Discuz!  技术支持:4K群