侏罗纪世界3 电影下载

[复制链接]
朱古力小酥酥 发表于 2022-7-8 16:31 | 显示全部楼层 |阅读模式
侏罗纪世界3.jpg
导演: 科林·特莱沃若
编剧: 艾米丽·卡迈克尔 / 科林·特莱沃若 / 德里克·康纳利 / 迈克尔·克莱顿
主演: 克里斯·帕拉特 / 布莱丝·达拉斯·霍华德 / 劳拉·邓恩 / 山姆·尼尔 / 杰夫·高布伦 / 德汪达·怀斯 / 马莫多·阿西 / 伊莎贝拉·瑟蒙 / 坎贝尔·斯科特 / 黄荣亮 / 奥玛·希 / 贾斯蒂斯·史密斯 / 丹妮艾拉·皮内达 / 斯科特·黑兹 / 迪辰·拉克曼 / 克里斯托弗·普拉哈 / 芙蕾雅·帕克 / 亚历山大·欧文 / 埃尔娃·崔尔 / 特蕾莎·森登·加西亚 / 瓦拉达·塞图 / 本·阿什登 / 小恩佐·斯奎利诺 / 格利尼斯·戴维斯 / 摩西·布林斯·普兰提 / 柯基·法尔考 / 迪米特里“维加斯”蒂瓦约 / 乔·阿佐帕迪 / 本·库克 / 伯纳多·桑托斯
类型: 动作 / 科幻 / 冒险
制片国家/地区: 美国 / 马耳他
语言: 英语
上映日期: 2022-06-10(美国/中国大陆) / 2022-06-01(韩国)
片长: 146分钟 / 147分钟(中国大陆)
又名: 侏罗纪世界3:统治 / 侏罗纪世界:统治霸权(港) / 侏罗纪世界:统霸天下(台) / 侏罗纪公园6 / Jurassic Park 6

侏罗纪世界3 Jurassic.World.3.Dominion.2022.KORSUB.1080p.WEBRip.DD5.1.x264-电影信息
  1. Video
  2. ID : 1
  3. Format : AVC
  4. Format/Info : Advanced Video Codec
  5. Format profile : [email protected]
  6. Format settings : CABAC / 2 Ref Frames
  7. Format settings, CABAC : Yes
  8. Format settings, Reference frames : 2 frames
  9. Format settings, GOP : M=1, N=30
  10. Codec ID : V_MPEG4/ISO/AVC
  11. Duration : 2 h 27 min
  12. Bit rate mode : Constant
  13. Bit rate : 8 000 kb/s
  14. Width : 1 920 pixels
  15. Height : 1 080 pixels
  16. Display aspect ratio : 16:9
  17. Frame rate mode : Constant
  18. Frame rate : 23.976 (24000/1001) FPS
  19. Color space : YUV
  20. Chroma subsampling : 4:2:0
  21. Bit depth : 8 bits
  22. Scan type : Progressive
  23. Bits/(Pixel*Frame) : 0.161
  24. Stream size : 8.21 GiB (95%)
  25. Default : Yes
  26. Forced : No

  27. Audio
  28. ID : 2
  29. Format : AC-3
  30. Format/Info : Audio Coding 3
  31. Commercial name : Dolby Digital
  32. Codec ID : A_AC3
  33. Duration : 2 h 27 min
  34. Bit rate mode : Constant
  35. Bit rate : 384 kb/s
  36. Channel(s) : 6 channels
  37. Channel layout : L R C LFE Ls Rs
  38. Sampling rate : 48.0 kHz
  39. Frame rate : 31.250 FPS (1536 SPF)
  40. Compression mode : Lossy
  41. Stream size : 404 MiB (5%)
  42. Language : English
  43. Service kind : Complete Main
  44. Default : Yes
  45. Forced : No

  46. Text
  47. ID : 3
  48. Format : UTF-8
  49. Codec ID : S_TEXT/UTF8
  50. Codec ID/Info : UTF-8 Plain Text
  51. Duration : 2 h 14 min
  52. Bit rate : 46 b/s
  53. Count of elements : 1432
  54. Stream size : 45.5 KiB (0%)
  55. Language : English
  56. Default : Yes
  57. Forced : No
复制代码

侏罗纪世界3 Jurassic.World.3.Dominion.2022.KORSUB.1080p.WEBRip.DD5.1.x264-电影下载

侏罗纪世界3 Jurassic.World.3.Dominion.2022.KORSUB.1080p.WEBRip.DD5.1.x264【8.61 GB】
Jurassic.World.3.Dominion.2022.KORSUB.1080p.WEBRip.DD5.1.x264-SHITBOX.torrent (22.19 KB, 下载次数: 5, 售价: 10 金币)
热门电影
关闭

站长通知上一条 /1 下一条

Copyright   ©2015-2016  4k群  Powered by©Discuz!  技术支持:4K群