[男女组合MV] [韩国UMAX.UHD]天堂槟城 2015(HEVC 60fps 10bit)[2160P/TS/10.4GB][百度云]

  [复制链接]
la哥 发表于 2017-3-21 10:30 | 显示全部楼层 |阅读模式
[tr][td][韩国UMAX.UHD]天堂槟城 2015(HEVC 60fps 10bit)[2160P/TS/10.4GB]& Q' r7 A. q' e" r# J- e
; r. m# F7 x) V, P/ t  b
General5 s: [0 c1 k/ i( a3 y+ a1 O
ID : 1 (0x1)' b5 |6 v/ m$ B# I# V+ Z$ F
Complete name : Paradise.in.Penang.2015.2160p.UHDTV.AAC2.0.HEVC-BtttS.ts+ W2 r7 D5 R" t9 e
Format : MPEG-TS
8 ?. h" v/ _  yFile size : 10.4 GiB% ?3 a* N& v; |/ F% ^% Q; @# x/ N
Duration : 44 min 38 s# `# ?# A) j: P' U" U
Overall bit rate mode : Variable) y. u8 v* K8 X- W
Overall bit rate : 33.4 Mbps+ L3 `2 \& J  w' F$ }2 K0 q7 ~
) W! S# a0 \4 S' [
Video
; v0 l6 H" d* _% T9 J$ P1 U# VID : 256 (0x100)$ E$ X% _$ z; C! {& U4 c
Menu ID : 1 (0x1)
( ^. ?3 z& v, M3 `Format : HEVC/ f4 G6 K4 Z- S' v& ]& D8 k
Format/Info : High Efficiency Video Coding
( w" Q' F  D& G* w! T% K9 w8 NFormat profile : Main [email protected]@Main, m- g7 z, {3 M/ x) B1 _; `
Codec ID : 36
  _8 _2 D+ Q4 V; t0 V1 ?6 [/ p3 bDuration : 44 min 38 s% T' }9 q! z( w+ s
Bit rate : 31.3 Mbps
& e: T+ v, K1 o* M) C+ U' U0 nWidth : 3840 pixels
0 ?# I: l, P  N. n" xHeight : 2160 pixels
) `0 v& g" n* J+ O/ b  h0 UDisplay aspect ratio : 16:9. |7 J7 c; C- O0 Q* }8 g
Frame rate : 60.000 FPS6 }- s, k! P6 h7 D( ?- j
Color space : YUV* h( E& S! G! v3 j/ n% T4 B
Chroma subsampling : 4:2:0
4 r9 h1 a, e# xBit depth : 10 bits  j4 A5 n+ R" y2 p; t! f
Bits/(Pixel*Frame) : 0.063
2 l7 J  S* X1 ]( I1 L+ NStream size : 9.78 GiB (94%)
- [! T2 r0 [1 t6 [  a. ]- rWriting library : ATEME www.4kqun.cn Titan KFE 3.6.2 (4.6.1.9)
4 k" D! d) ~; Q. m/ @8 J( k0 P0 d" l3 t% ^
Audio
0 m+ ?+ H( c- lID : 257 (0x101)" X) t0 f- w+ e2 a3 M
Menu ID : 1 (0x1)
+ Z7 a2 a8 {. v+ ~% G; ]0 O0 b% Y; `Format : AC-36 c0 b; h+ N% X$ m1 @
Format/Info : Audio Coding 3
1 T3 w+ G, ]0 B  z5 g( s, p1 y* kFormat settings, Endianness : Big. E: k0 x9 n9 f7 B
Codec ID : 129
4 B# y4 b. h2 {2 r# F) {4 f3 Y4 qDuration : 44 min 38 s* l3 l) |" M( q8 }
Bit rate mode : Constant
' ^8 L* L+ h! \& @7 o$ p+ LBit rate : 384 kb/s2 S' k: X- q+ J) N% X3 _
Channel(s) : 2 channels
  T6 n+ f6 v) r* v$ VChannel positions : Front: L R1 M9 V1 Z4 x6 P2 H" {: Z
Sampling rate : 48.0 kHz
* Q6 W; w6 ^( J1 Q* X/ B# ~  W5 d6 hFrame rate : 31.250 FPS (1536 spf)
7 o! y- b( T" ?9 |Bit depth : 16 bits; ^" K# @$ F" a2 R$ t2 F+ }# k
Compression mode : Lossy$ H$ [3 P% U) G: l
Delay relative to video : 14 ms: [& H8 P; K" j( g5 w
Stream size : 123 MiB (1%)* l; N! [9 f& p2 J) o; g
Language : Korean/ f! O3 y9 H6 k# V4 S
Service kind : Complete Main
! a' c, x: M4 ^/ A9 Q" V/ W: ?% \8 T& I$ z# s
Menu0 I0 v( x6 O2 N4 ~
ID : 4096 (0x1000)' G; {% K& Q) M' |! N, i3 x8 J7 i
Menu ID : 1 (0x1)& r4 E- d" |/ I
Duration : 44 min 38 s
# ^  f7 z* X. H9 _2 SList : 256 (0x100) (HEVC) / 257 (0x101) (AC-3, Korean), v& U: y! x8 i* R; p8 a0 c4 {4 x+ m
Language : / Korean3 q$ L" Q2 L  W* K2 h
Service name : Shyguy$ u) Z: }; L! _) R/ L3 K3 B- _
Service provider : Born 2 Seed2 Z2 ~: ~. L7 K% B
Service type : digital television
. Y2 t( d$ H+ d" N$ r8 b/ g9 R( c, v4 l/ B
播放器potplaye/MPC-HC
, \. A$ L% N% t[韩国UMAX.UHD]天堂槟城 2015(HEVC 60fps 10bit)[2160P/TS/10.4GB][百度云]免费下载:
7 b* k0 }0 v; s2 |) s3 ^# f  t* |# c# X
百度云下载.txt (63 Bytes, 下载次数: 28, 售价: 5 金币) % H! ]; ~' K. X8 @

" z0 q: Q% J1 w, }
/ I* |/ Z* ~* f* W8 l* t0 u解压密码:
游客,如果您要查看本帖隐藏内容请回复

3 f6 q- y# f7 _. R3 M. E
caige666 发表于 2020-1-1 16:21 | 显示全部楼层
资源过期了
热门电影
关闭

站长通知上一条 /1 下一条

Copyright   ©2015-2016  4k群  Powered by©Discuz!  技术支持:4K群